<?xml version="1.0" standalone="no"?>
<!DOCTYPE svg PUBLIC "-//W3C//DTD SVG 1.1//EN" "http://www.w3.org/Graphics/SVG/1.1/DTD/svg11.dtd" >
<svg xmlns="http://www.w3.org/2000/svg">
<metadata>Generated by IcoMoon</metadata>
<defs>
<font id="material-outline-icons" horiz-adv-x="1024">
<font-face units-per-em="1024" ascent="960" descent="-64" />
<missing-glyph horiz-adv-x="1024" />
<glyph unicode="&#x20;" horiz-adv-x="512" d="" />
<glyph unicode="&#xe900;" glyph-name="3d_rotation" d="M321.28 43.52c-139.52 65.707-239.36 201.387-254.72 361.813h-64c21.76-262.827 241.493-469.333 509.867-469.333l28.16 1.28-162.56 162.56-56.747-56.32zM359.253 321.707c-8.107 0-15.787 1.28-22.187 3.413-6.827 2.56-12.373 5.547-17.067 10.24-4.693 4.267-8.533 9.387-11.093 15.787-2.56 5.973-3.84 12.8-3.84 20.053h-55.467c0-15.36 2.987-29.013 8.96-40.533s14.080-21.333 23.893-29.44c10.24-7.68 21.76-13.653 34.987-17.493 12.8-4.267 26.453-6.4 40.96-6.4 15.787 0 30.72 2.133 43.947 6.4 13.653 4.267 25.6 10.667 35.413 18.773s17.92 18.347 23.467 30.72 8.533 26.027 8.533 41.387c0 8.107-0.853 16.213-2.987 23.893s-5.12 14.933-9.813 21.76c-4.267 6.827-10.24 12.8-17.067 18.347-7.253 5.547-15.787 9.813-26.027 13.227 8.533 3.84 15.787 8.533 22.187 14.080s11.52 11.52 15.787 17.92c4.267 6.4 7.253 12.8 9.387 19.627s2.987 13.653 2.987 20.48c0 15.36-2.56 29.013-7.68 40.96s-12.373 21.76-21.76 29.44c-8.533 8.107-20.053 14.080-32.853 18.347-13.227 3.84-27.733 5.973-43.52 5.973-15.36 0-29.44-2.133-42.667-6.827-12.8-4.693-24.32-11.093-33.707-19.2-8.96-8.107-16.213-17.493-21.76-28.587-5.12-11.093-7.68-23.040-7.68-36.267h55.467c0 7.253 1.28 13.653 3.84 19.2s5.973 10.667 10.667 14.507 9.813 7.253 16.213 9.387 12.8 3.413 20.48 3.413c17.067 0 29.867-4.267 37.973-13.227 8.107-8.533 12.373-20.907 12.373-36.693 0-7.68-1.28-14.507-3.413-20.907s-5.973-11.52-10.667-15.787c-4.693-4.267-10.667-7.68-17.493-10.24s-15.36-3.84-24.747-3.84h-32.853v-43.947h32.853c9.387 0 17.92-0.853 25.6-2.987s14.080-5.547 19.2-9.813c5.12-4.693 9.387-10.24 12.373-17.067s4.267-14.933 4.267-24.32c0-17.493-5.12-30.72-14.933-39.68-9.813-9.813-23.467-14.080-40.533-14.080zM724.053 574.293c-13.653 14.080-29.867 25.173-48.64 32.853s-39.68 11.52-62.72 11.52h-100.693v-341.333h98.133c23.467 0 45.227 3.84 64.427 11.52s35.84 18.347 49.493 32.427c13.653 14.080 24.32 31.147 31.573 50.773 7.253 20.053 11.093 42.24 11.093 66.987v17.067c0 24.747-3.84 46.933-11.093 66.987s-17.92 37.12-31.573 51.2zM707.413 439.467c0-17.92-2.133-33.707-5.973-48.213-4.267-14.080-10.24-26.453-18.347-36.267s-18.347-17.493-30.293-22.613c-12.373-5.12-26.453-7.68-42.24-7.68h-38.827v246.187h41.387c30.72 0 54.187-9.813 69.973-29.44 16.213-19.627 24.32-47.787 24.32-84.907v-17.067zM512.427 960l-28.16-1.28 162.56-162.56 56.747 56.747c139.52-66.133 239.36-201.387 254.293-361.813h64c-21.333 262.4-241.067 468.907-509.44 468.907z" />
<glyph unicode="&#xe901;" glyph-name="4k" d="M810.667 832h-597.333c-46.933 0-85.333-38.4-85.333-85.333v-597.333c0-46.933 37.973-85.333 85.333-85.333h597.333c46.933 0 85.333 38.4 85.333 85.333v597.333c0 46.933-37.973 85.333-85.333 85.333zM810.667 149.333h-597.333v597.333h597.333v-597.333zM405.333 320h64v63.573h42.667v64.427h-42.667v128h-64v-128h-64v128h-64v-192h128zM776.533 320l-85.333 128 85.333 128h-72.533l-85.333-128 85.333-128zM618.667 448v128h-64v-256h64z" />
<glyph unicode="&#xe902;" glyph-name="360" d="M512 661.333c-235.52 0-426.667-95.573-426.667-213.333 0-95.573 125.44-176.213 298.667-203.52v-137.813l170.667 170.667-170.667 170.667v-116.48c-134.4 23.893-213.333 81.067-213.333 116.48 0 45.227 129.707 128 341.333 128s341.333-82.773 341.333-128c0-31.147-62.293-80.64-170.667-107.947v-87.467c150.613 32.853 256 107.947 256 195.413 0 117.76-191.147 213.333-426.667 213.333z" />
<glyph unicode="&#xe903;" glyph-name="ac_unit" d="M938.667 490.667h-177.92l138.24 138.24-60.16 60.587-198.827-198.827h-85.333v85.333l198.827 198.827-60.587 60.16-138.24-138.24v177.92h-85.333v-177.92l-138.24 138.24-60.587-60.16 198.827-198.827v-85.333h-85.333l-198.827 198.827-60.16-60.587 138.24-138.24h-177.92v-85.333h177.92l-138.24-138.24 60.16-60.587 198.827 198.827h85.333v-85.333l-198.827-198.827 60.587-60.16 138.24 138.24v-177.92h85.333v177.92l138.24-138.24 60.587 60.16-198.827 198.827v85.333h85.333l198.827-198.827 60.16 60.587-138.24 138.24h177.92v85.333z" />
<glyph unicode="&#xe904;" glyph-name="access_alarm" d="M938.667 715.947l-196.267 164.693-55.040-65.28 196.267-164.693 55.040 65.28zM336.213 815.36l-54.613 65.28-196.267-164.267 55.040-65.28 195.84 164.267zM533.333 618.667h-64v-256l202.667-121.6 32 52.48-170.667 101.12v224zM512 789.333c-212.053 0-384-171.947-384-384s171.52-384 384-384c212.053 0 384 171.947 384 384s-171.947 384-384 384zM512 106.667c-165.12 0-298.667 133.547-298.667 298.667s133.547 298.667 298.667 298.667 298.667-133.547 298.667-298.667-133.547-298.667-298.667-298.667z" />
<glyph unicode="&#xe905;" glyph-name="access_alarms" d="M938.667 716.8l-196.267 166.4-55.467-64 196.267-166.4 55.467 64zM337.067 814.933l-55.467 64-196.267-162.133 55.467-64 196.267 162.133zM533.333 618.667h-64v-256l200.533-123.733 34.133 51.2-170.667 102.4v226.133zM512 789.333c-213.333 0-384-170.667-384-384s170.667-384 384-384 384 170.667 384 384-170.667 384-384 384zM512 106.667c-166.4 0-298.667 132.267-298.667 298.667s132.267 298.667 298.667 298.667 298.667-132.267 298.667-298.667-132.267-298.667-298.667-298.667z" />
<glyph unicode="&#xe906;" glyph-name="access_time" d="M511.573 874.667c-235.52 0-426.24-191.147-426.24-426.667s190.72-426.667 426.24-426.667c235.947 0 427.093 191.147 427.093 426.667s-191.147 426.667-427.093 426.667zM512 106.667c-188.587 0-341.333 152.747-341.333 341.333s152.747 341.333 341.333 341.333 341.333-152.747 341.333-341.333c0-188.587-152.747-341.333-341.333-341.333zM533.333 661.333h-64v-256l224-134.4 32 52.48-192 113.92z" />
<glyph unicode="&#xe907;" glyph-name="accessibility_new" d="M874.667 704c-111.36-29.867-241.92-42.667-362.667-42.667s-251.307 12.8-362.667 42.667l-21.333-85.333c79.36-21.333 170.667-35.413 256-42.667v-554.667h85.333v256h85.333v-256h85.333v554.667c85.333 7.253 176.64 21.333 256 42.667l-21.333 85.333zM512 704c46.933 0 85.333 38.4 85.333 85.333s-38.4 85.333-85.333 85.333-85.333-38.4-85.333-85.333 38.4-85.333 85.333-85.333z" />
<glyph unicode="&#xe908;" glyph-name="accessibility" d="M512 874.667c46.933 0 85.333-38.4 85.333-85.333s-38.4-85.333-85.333-85.333-85.333 38.4-85.333 85.333 38.4 85.333 85.333 85.333zM896 576h-256v-554.667h-85.333v256h-85.333v-256h-85.333v554.667h-256v85.333h768v-85.333z" />
<glyph unicode="&#xe909;" glyph-name="accessible_forward" d="M853.333 766.293c0-47.128-38.205-85.333-85.333-85.333s-85.333 38.205-85.333 85.333c0 47.128 38.205 85.333 85.333 85.333s85.333-38.205 85.333-85.333zM640 234.667h-85.333c0-70.4-57.6-128-128-128s-128 57.6-128 128 57.6 128 128 128v85.333c-117.76 0-213.333-95.573-213.333-213.333s95.573-213.333 213.333-213.333 213.333 95.573 213.333 213.333zM768 384h-79.36l71.253 156.587c26.027 56.747-15.787 120.747-78.933 120.747h-221.867c-34.56 0-65.707-20.053-79.787-51.2l-28.587-76.8 81.92-22.613 27.733 65.28h94.293l-78.080-174.933c-25.6-56.747 16.64-123.733 78.933-123.733h212.48v-213.333h85.333v234.667c0 46.933-38.4 85.333-85.333 85.333z" />
<glyph unicode="&#xe90a;" glyph-name="accessible" d="M597.333 789.333c0-47.128-38.205-85.333-85.333-85.333s-85.333 38.205-85.333 85.333c0 47.128 38.205 85.333 85.333 85.333s85.333-38.205 85.333-85.333zM810.667 405.333v85.333c-65.707-0.853-131.84 32-173.653 78.080l-55.040 61.013c-7.253 8.107-16.213 14.507-26.027 19.2-0.427 0-0.427 0.427-0.853 0.427h-0.427c-14.933 8.533-32 12.8-50.773 11.093-44.8-3.84-77.227-43.52-77.227-88.32v-252.16c0-46.933 38.4-85.333 85.333-85.333h213.333v-213.333h85.333v234.667c0 46.933-38.4 85.333-85.333 85.333h-128v147.2c55.040-45.653 138.667-82.773 213.333-83.2zM426.667 106.667c-70.827 0-128 57.173-128 128 0 55.893 35.84 102.827 85.333 120.747v88.32c-97.28-19.627-170.667-105.813-170.667-209.067 0-117.76 95.573-213.333 213.333-213.333 103.253 0 189.44 73.387 209.067 170.667h-88.32c-17.493-49.493-64.853-85.333-120.747-85.333z" />
<glyph unicode="&#xe90b;" glyph-name="account_balance_wallet" d="M896 649.387v97.28c0 46.933-38.4 85.333-85.333 85.333h-597.333c-47.36 0-85.333-38.4-85.333-85.333v-597.333c0-46.933 37.973-85.333 85.333-85.333h597.333c46.933 0 85.333 38.4 85.333 85.333v97.28c25.173 14.933 42.667 41.813 42.667 73.387v256c0 31.573-17.493 58.453-42.667 73.387zM853.333 576v-256h-298.667v256h298.667zM213.333 149.333v597.333h597.333v-85.333h-256c-46.933 0-85.333-38.4-85.333-85.333v-256c0-46.933 38.4-85.333 85.333-85.333h256v-85.333h-597.333zM746.667 448c0-35.346-28.654-64-64-64s-64 28.654-64 64c0 35.346 28.654 64 64 64s64-28.654 64-64z" />
<glyph unicode="&#xe90c;" glyph-name="account_balance" d="M277.333 533.333h-85.333v-298.667h85.333v298.667zM533.333 533.333h-85.333v-298.667h85.333v298.667zM896 149.333h-810.667v-85.333h810.667v85.333zM789.333 533.333h-85.333v-298.667h85.333v298.667zM490.667 820.907l222.293-116.907h-444.587l222.293 116.907zM490.667 917.333l-405.333-213.333v-85.333h810.667v85.333l-405.333 213.333z" />
<glyph unicode="&#xe90d;" glyph-name="account_box" d="M810.667 746.667v-597.333h-597.333v597.333h597.333zM810.667 832h-597.333c-47.36 0-85.333-38.4-85.333-85.333v-597.333c0-46.933 37.973-85.333 85.333-85.333h597.333c46.933 0 85.333 38.4 85.333 85.333v597.333c0 46.933-38.4 85.333-85.333 85.333v0zM512 448c-70.4 0-128 57.6-128 128s57.6 128 128 128 128-57.6 128-128-57.6-128-128-128zM512 618.667c-23.467 0-42.667-19.2-42.667-42.667s19.2-42.667 42.667-42.667 42.667 19.2 42.667 42.667-19.2 42.667-42.667 42.667zM768 192h-512v65.28c0 106.667 169.387 152.747 256 152.747s256-46.080 256-152.747v-65.28zM354.56 277.333h314.88c-29.44 23.893-101.547 47.787-157.44 47.787s-128.427-23.893-157.44-47.787z" />
<glyph unicode="&#xe90e;" glyph-name="account_circle" d="M512 874.667c-235.52 0-426.667-191.147-426.667-426.667s191.147-426.667 426.667-426.667c235.52 0 426.667 191.147 426.667 426.667s-191.147 426.667-426.667 426.667zM301.653 180.053c18.347 38.4 130.133 75.947 210.347 75.947s192.427-37.547 210.347-75.947c-58.027-46.080-130.987-73.387-210.347-73.387s-152.32 27.307-210.347 73.387zM783.36 241.92c-61.013 74.24-209.067 99.413-271.36 99.413s-210.347-25.173-271.36-99.413c-43.52 57.173-69.973 128.427-69.973 206.080 0 188.16 153.173 341.333 341.333 341.333s341.333-153.173 341.333-341.333c0-77.653-26.453-148.907-69.973-206.080zM512 704c-82.773 0-149.333-66.56-149.333-149.333s66.56-149.333 149.333-149.333c82.773 0 149.333 66.56 149.333 149.333s-66.56 149.333-149.333 149.333zM512 490.667c-35.413 0-64 28.587-64 64s28.587 64 64 64c35.413 0 64-28.587 64-64s-28.587-64-64-64z" />
<glyph unicode="&#xe90f;" glyph-name="adb" d="M213.333 277.333c0-165.12 133.547-298.667 298.667-298.667s298.667 133.547 298.667 298.667v170.667h-597.333v-170.667zM687.787 773.547l89.6 89.6-34.987 35.413-98.133-98.56c-40.107 20.053-84.48 32-132.267 32s-92.16-11.947-131.84-32l-98.56 98.56-34.987-35.413 89.6-89.6c-74.24-54.187-122.88-141.227-122.88-240.213v-42.667h597.333v42.667c0 98.987-48.64 186.027-122.88 240.213zM384 576c-23.467 0-42.667 19.2-42.667 42.667s19.2 42.667 42.667 42.667 42.667-19.2 42.667-42.667-19.2-42.667-42.667-42.667zM640 576c-23.467 0-42.667 19.2-42.667 42.667s19.2 42.667 42.667 42.667 42.667-19.2 42.667-42.667-19.2-42.667-42.667-42.667z" />
<glyph unicode="&#xe910;" glyph-name="add_a_photo" d="M896 704h-135.253l-78.080 85.333h-256v-85.333h218.453l78.080-85.333h172.8v-512h-682.667v384h-85.333v-384c0-46.933 38.4-85.333 85.333-85.333h682.667c46.933 0 85.333 38.4 85.333 85.333v512c0 46.933-38.4 85.333-85.333 85.333zM341.333 362.667c0-117.76 95.573-213.333 213.333-213.333s213.333 95.573 213.333 213.333-95.573 213.333-213.333 213.333-213.333-95.573-213.333-213.333zM554.667 490.667c70.4 0 128-57.6 128-128s-57.6-128-128-128-128 57.6-128 128c0 70.4 57.6 128 128 128zM213.333 704h128v85.333h-128v128h-85.333v-128h-128v-85.333h128v-128h85.333z" />
<glyph unicode="&#xe911;" glyph-name="add_alarm" d="M336.213 815.36l-54.613 65.28-196.267-164.267 55.040-65.28 195.84 164.267zM938.667 715.947l-196.267 164.693-55.040-65.28 196.267-164.693 55.040 65.28zM512 789.333c-212.053 0-384-171.947-384-384s171.52-384 384-384c212.053 0 384 171.947 384 384s-171.947 384-384 384zM512 106.667c-165.12 0-298.667 133.547-298.667 298.667s133.547 298.667 298.667 298.667 298.667-133.547 298.667-298.667-133.547-298.667-298.667-298.667zM554.667 576h-85.333v-128h-128v-85.333h128v-128h85.333v128h128v85.333h-128v128z" />
<glyph unicode="&#xe912;" glyph-name="add_alert" d="M427.093 63.573c0-46.933 37.973-84.907 84.907-84.907s84.907 37.973 84.907 84.907h-169.813zM512 704c117.76 0 213.333-95.573 213.333-213.333v-298.667h-426.667v298.667c0 117.76 95.573 213.333 213.333 213.333v0zM512 896c-35.413 0-64-28.587-64-64v-49.92c-133.973-29.013-234.667-148.48-234.667-291.413v-256l-85.333-85.333v-42.667h768v42.667l-85.333 85.333v256c0 142.933-100.693 262.4-234.667 291.413v49.92c0 35.413-28.587 64-64 64v0zM554.667 618.667h-85.333v-128h-128v-85.333h128v-128h85.333v128h128v85.333h-128z" />
<glyph unicode="&#xe913;" glyph-name="add_box" d="M810.667 832h-597.333c-47.36 0-85.333-38.4-85.333-85.333v-597.333c0-46.933 37.973-85.333 85.333-85.333h597.333c46.933 0 85.333 38.4 85.333 85.333v597.333c0 46.933-38.4 85.333-85.333 85.333zM810.667 149.333h-597.333v597.333h597.333v-597.333zM469.333 234.667h85.333v170.667h170.667v85.333h-170.667v170.667h-85.333v-170.667h-170.667v-85.333h170.667z" />
<glyph unicode="&#xe914;" glyph-name="add_circle_outline" d="M554.667 661.333h-85.333v-170.667h-170.667v-85.333h170.667v-170.667h85.333v170.667h170.667v85.333h-170.667v170.667zM512 874.667c-235.52 0-426.667-191.147-426.667-426.667s191.147-426.667 426.667-426.667 426.667 191.147 426.667 426.667-191.147 426.667-426.667 426.667zM512 106.667c-188.16 0-341.333 153.173-341.333 341.333s153.173 341.333 341.333 341.333 341.333-153.173 341.333-341.333-153.173-341.333-341.333-341.333z" />
<glyph unicode="&#xe915;" glyph-name="add_circle" d="M512 874.667c-235.52 0-426.667-191.147-426.667-426.667s191.147-426.667 426.667-426.667 426.667 191.147 426.667 426.667-191.147 426.667-426.667 426.667zM725.333 405.333h-170.667v-170.667h-85.333v170.667h-170.667v85.333h170.667v170.667h85.333v-170.667h170.667v-85.333z" />
<glyph unicode="&#xe916;" glyph-name="add_comment" d="M938.667 789.333c0 46.933-38.4 85.333-85.333 85.333h-682.667c-46.933 0-85.333-38.4-85.333-85.333v-512c0-46.933 38.4-85.333 85.333-85.333h597.333l170.667-170.667v768zM853.333 227.413l-49.92 49.92h-632.747v512h682.667v-561.92zM554.667 746.667h-85.333v-170.667h-170.667v-85.333h170.667v-170.667h85.333v170.667h170.667v85.333h-170.667z" />
<glyph unicode="&#xe917;" glyph-name="add_location" d="M512 874.667c-164.693 0-298.667-133.973-298.667-298.667 0-224 298.667-554.667 298.667-554.667s298.667 330.667 298.667 554.667c0 164.693-133.973 298.667-298.667 298.667zM298.667 576c0 117.76 95.573 213.333 213.333 213.333s213.333-95.573 213.333-213.333c0-122.88-122.88-306.773-213.333-421.547-88.747 113.92-213.333 299.947-213.333 421.547zM554.667 704h-85.333v-85.333h-85.333v-85.333h85.333v-85.333h85.333v85.333h85.333v85.333h-85.333z" />
<glyph unicode="&#xe918;" glyph-name="add_photo_alternate" d="M768 106.667h-597.333v597.333h384v85.333h-384c-46.933 0-85.333-38.4-85.333-85.333v-597.333c0-46.933 38.4-85.333 85.333-85.333h597.333c46.933 0 85.333 38.4 85.333 85.333v384h-85.333v-384zM435.627 241.92l-83.627 100.693-117.333-150.613h469.333l-151.040 200.96zM853.333 789.333v128h-85.333v-128h-128c0.427-0.427 0-85.333 0-85.333h128v-127.573c0.427-0.427 85.333 0 85.333 0v127.573h128v85.333h-128z" />
<glyph unicode="&#xe919;" glyph-name="add_shopping_cart" d="M469.333 576h85.333v128h128v85.333h-128v128h-85.333v-128h-128v-85.333h128v-128zM298.667 192c-46.933 0-84.907-38.4-84.907-85.333s37.973-85.333 84.907-85.333 85.333 38.4 85.333 85.333-38.4 85.333-85.333 85.333zM725.333 192c-46.933 0-84.907-38.4-84.907-85.333s37.973-85.333 84.907-85.333 85.333 38.4 85.333 85.333-38.4 85.333-85.333 85.333zM345.6 405.333h317.867c32 0 60.16 17.493 74.667 43.947l164.693 299.093-74.24 40.96-165.12-298.667h-299.52l-181.76 384h-139.52v-85.333h85.333l153.6-323.84-57.6-104.107c-31.147-57.173 9.813-126.72 74.667-126.72h512v85.333h-512l46.933 85.333z" />
<glyph unicode="&#xe91a;" glyph-name="add_to_home_screen" d="M768 916.907l-426.667 0.427c-46.933 0-85.333-38.4-85.333-85.333v-128h85.333v42.667h426.667v-597.333h-426.667v42.667h-85.333v-128c0-46.933 38.4-85.333 85.333-85.333h426.667c46.933 0 85.333 38.4 85.333 85.333v768c0 46.933-38.4 84.907-85.333 84.907zM426.667 320h85.333v298.667h-298.667v-85.333h153.173l-238.507-238.507 60.16-60.16 238.507 238.507v-153.173z" />
<glyph unicode="&#xe91b;" glyph-name="add_to_photos" d="M170.667 704h-85.333v-597.333c0-46.933 38.4-85.333 85.333-85.333h597.333v85.333h-597.333v597.333zM853.333 874.667h-512c-46.933 0-85.333-38.4-85.333-85.333v-512c0-46.933 38.4-85.333 85.333-85.333h512c46.933 0 85.333 38.4 85.333 85.333v512c0 46.933-38.4 85.333-85.333 85.333zM853.333 277.333h-512v512h512v-512zM554.667 320h85.333v170.667h170.667v85.333h-170.667v170.667h-85.333v-170.667h-170.667v-85.333h170.667z" />
<glyph unicode="&#xe91c;" glyph-name="add_to_queue" d="M469.333 320h85.333v128h128v85.333h-128v128h-85.333v-128h-128v-85.333h128zM896 832h-768c-47.36 0-85.333-37.973-85.333-85.333v-512c0-46.933 37.973-85.333 85.333-85.333h213.333v-85.333h341.333v85.333h213.333c46.933 0 85.333 38.4 85.333 85.333v512c0 47.36-38.4 85.333-85.333 85.333zM896 234.667h-768v512h768v-512z" />
<glyph unicode="&#xe91d;" glyph-name="add" d="M810.667 405.333h-256v-256h-85.333v256h-256v85.333h256v256h85.333v-256h256v-85.333z" />
<glyph unicode="&#xe91e;" glyph-name="adjust" d="M512 874.667c-235.093 0-426.667-191.573-426.667-426.667s191.573-426.667 426.667-426.667 426.667 191.573 426.667 426.667-191.573 426.667-426.667 426.667zM512 106.667c-188.16 0-341.333 153.173-341.333 341.333s153.173 341.333 341.333 341.333 341.333-153.173 341.333-341.333-153.173-341.333-341.333-341.333zM640 448c0-70.827-57.173-128-128-128s-128 57.173-128 128 57.173 128 128 128 128-57.173 128-128z" />
<glyph unicode="&#xe91f;" glyph-name="airline_seat_flat_angled" d="M256 682.667c13.227 0 29.867-6.4 38.4-23.893 10.24-21.333 0.853-46.933-20.053-57.173-5.973-2.56-11.947-4.267-18.347-4.267-12.8 0-29.867 6.4-37.973 23.893-7.253 14.507-4.267 26.88-2.133 33.28 2.133 5.973 7.68 17.067 21.76 23.893 5.973 2.56 11.947 4.267 18.347 4.267zM532.053 592.64l285.44-102.827c22.187-8.107 39.68-23.893 49.067-44.8 9.387-20.48 10.667-43.947 2.56-65.28l-0.427-0.853-366.507 132.693 29.867 81.067zM426.667 311.893l170.667-61.44v-15.787h-170.667v77.227zM256 768c-18.773 0-37.547-4.267-55.467-12.8-63.573-30.293-90.453-106.667-59.733-170.667 21.76-45.653 67.413-72.533 115.2-72.533 18.773 0 37.547 4.267 55.467 12.8 63.573 30.72 90.453 107.093 60.16 170.667-22.187 45.653-67.84 72.533-115.627 72.533v0zM481.28 701.867l-88.747-241.493 527.36-190.72 29.44 80.64c32.853 89.173-13.227 187.307-102.827 219.733l-365.227 131.84zM93.44 522.667l-29.44-80.64 277.333-99.84v-192.853h341.333v69.547l192.853-69.547 29.44 80.64-811.52 292.693z" />
<glyph unicode="&#xe920;" glyph-name="airline_seat_flat" d="M213.333 405.333c33.28 0 66.133 12.8 91.307 38.4 49.493 50.773 48.64 131.413-1.707 180.907-25.173 24.32-57.6 36.693-89.6 36.693-33.28 0-66.133-12.8-91.307-38.4-49.493-50.773-48.64-131.413 1.707-180.907 25.173-24.32 57.6-36.693 89.6-36.693zM183.040 563.2c8.107 8.107 18.773 12.8 30.293 12.8 11.093 0 21.76-4.267 29.867-11.947 17.067-16.64 17.067-43.093 0.853-60.16-8.533-8.533-19.2-13.227-30.72-13.227-11.093 0-21.76 4.267-29.867 11.947-17.067 17.067-17.067 43.52-0.427 60.587zM768 661.333h-384v-256h554.667v85.333c0 94.293-76.373 170.667-170.667 170.667zM469.333 490.667v85.333h298.667c46.933 0 85.333-38.4 85.333-85.333h-384zM85.333 277.333h256v-85.333h341.333v85.333h256v85.333h-853.333z" />
<glyph unicode="&#xe921;" glyph-name="airline_seat_individual_suite" d="M298.667 362.667c70.827 0 128 57.173 128 128s-57.173 128-128 128c-70.827 0-128-57.173-128-128s57.173-128 128-128zM298.667 533.333c23.467 0 42.667-19.2 42.667-42.667s-19.2-42.667-42.667-42.667-42.667 19.2-42.667 42.667 19.2 42.667 42.667 42.667zM810.667 661.333h-341.333v-341.333h-341.333v341.333h-85.333v-426.667h938.667v256c0 94.293-76.373 170.667-170.667 170.667zM896 320h-341.333v256h256c46.933 0 85.333-38.4 85.333-85.333v-170.667z" />
<glyph unicode="&#xe922;" glyph-name="airline_seat_legroom_extra" d="M170.667 448v384h-85.333v-384c0-117.76 95.573-213.333 213.333-213.333h256v85.333h-256c-70.827 0-128 57.173-128 128zM974.080 224.427c-16.213 30.72-55.040 41.387-86.613 26.88l-46.507-21.333-145.493 297.813c-14.507 29.013-43.947 48.213-76.373 48.213h-149.76v256h-256v-341.333c0-70.827 57.173-128 128-128h298.667l145.493-298.667 158.72 72.533c32.853 15.36 46.933 55.467 29.867 87.893z" />
<glyph unicode="&#xe923;" glyph-name="airline_seat_legroom_normal" d="M213.333 448v384h-85.333v-384c0-117.76 95.573-213.333 213.333-213.333h256v85.333h-256c-70.827 0-128 57.173-128 128zM874.667 192h-64v298.667c0 46.933-38.4 85.333-85.333 85.333h-213.333v256h-256v-341.333c0-70.4 57.6-128 128-128h298.667v-298.667h192c35.413 0 64 28.587 64 64s-28.587 64-64 64z" />
<glyph unicode="&#xe924;" glyph-name="airline_seat_legroom_reduced" d="M852.053 140.8c7.68-40.96-23.467-76.8-62.72-76.8h-192v128l42.667 170.667h-256c-70.4 0-128 57.6-128 128v341.333h256v-256h213.333c46.933 0 85.333-38.4 85.333-85.333l-85.333-298.667h61.44c31.147 0 59.307-20.907 65.28-51.2zM213.333 448v384h-85.333v-384c0-117.76 95.573-213.333 213.333-213.333h170.667v85.333h-170.667c-70.827 0-128 57.173-128 128z" />
<glyph unicode="&#xe925;" glyph-name="airline_seat_recline_extra" d="M228.267 719.36c-38.4 27.307-47.787 80.213-20.907 119.040 26.88 38.4 80.213 47.787 119.040 20.907 38.4-27.307 47.787-80.213 20.907-119.040-27.307-38.4-80.213-47.787-119.040-20.907zM682.667 149.333h-301.653c-63.147 0-116.907 46.080-126.293 108.373l-84.053 403.627h-85.333l84.907-416.427c16.213-104.107 105.813-180.907 211.2-180.907h301.227v85.333zM692.48 320h-208.213l-43.947 174.933c67.413-37.973 139.947-65.707 219.733-52.053v90.88c-69.547-13.227-146.773 11.52-200.107 53.333l-69.973 54.187c-9.813 7.68-20.907 12.8-32.427 16.213-13.653 3.84-28.16 5.12-42.24 2.56h-0.853c-52.48-9.387-87.467-59.307-78.507-111.36l57.6-252.587c11.947-60.587 64.427-104.107 125.867-104.107h292.267l162.987-128 64 64-246.187 192z" />
<glyph unicode="&#xe926;" glyph-name="airline_seat_recline_normal" d="M323.84 729.173c-33.28 33.28-33.28 87.467 0 120.747s87.467 33.28 120.747 0 33.28-87.467 0-120.747c-33.707-33.707-87.467-33.707-120.747 0zM256 277.333v384h-85.333v-384c0-117.76 95.573-213.333 213.333-213.333h256v85.333h-256c-70.827 0-128 57.173-128 128zM853.333 103.68l-216.32 216.32h-146.347v157.013c59.733-49.067 153.6-92.16 234.667-92.16v92.16c-70.827-0.853-154.027 37.12-199.253 87.040l-59.733 66.133c-8.107 8.96-18.347 16.213-29.44 21.333-12.373 5.973-26.453 9.813-40.96 9.813h-1.28c-52.907 0-96-43.093-96-96v-245.333c0-70.827 57.173-128 128-128h216.32l149.333-149.333 61.013 61.013z" />
<glyph unicode="&#xe927;" glyph-name="airplanemode_active" d="M896 277.333v85.333l-341.333 213.333v234.667c0 35.413-28.587 64-64 64s-64-28.587-64-64v-234.667l-341.333-213.333v-85.333l341.333 106.667v-234.667l-85.333-64v-64l149.333 42.667 149.333-42.667v64l-85.333 64v234.667l341.333-106.667z" />
<glyph unicode="&#xe928;" glyph-name="airplanemode_inactive" d="M896 277.333v85.333l-341.333 213.333v234.667c0 35.413-28.587 64-64 64s-64-28.587-64-64v-132.693l369.067-369.067 100.267-31.573zM799.147 64l60.16 60.16-671.147 671.147-60.16-60.16 212.907-212.907-255.573-159.573v-85.333l341.333 106.667v-234.667l-85.333-64v-64l149.333 42.667 149.333-42.667v64l-85.333 64v159.147z" />
<glyph unicode="&#xe929;" glyph-name="airplay" d="M256 21.333h512l-256 256zM896 832h-768c-46.933 0-85.333-38.4-85.333-85.333v-512c0-46.933 38.4-85.333 85.333-85.333h170.667v85.333h-170.667v512h768v-512h-170.667v-85.333h170.667c46.933 0 85.333 38.4 85.333 85.333v512c0 46.933-38.4 85.333-85.333 85.333z" />
<glyph unicode="&#xe92a;" glyph-name="airport_shuttle" d="M725.333 746.667h-597.333c-46.933 0-85.333-37.973-85.333-85.333v-384h85.333c0-70.827 57.173-128 128-128s128 57.173 128 128h256c0-70.827 57.173-128 128-128s128 57.173 128 128h85.333v213.333l-256 256zM640 661.333h42.667l128-128h-170.667v128zM384 661.333h170.667v-128h-170.667v128zM128 661.333h170.667v-128h-170.667v128zM256 224c-29.44 0-53.333 23.893-53.333 53.333s23.893 53.333 53.333 53.333 53.333-23.893 53.333-53.333-23.893-53.333-53.333-53.333zM768 224c-29.44 0-53.333 23.893-53.333 53.333s23.893 53.333 53.333 53.333 53.333-23.893 53.333-53.333-23.893-53.333-53.333-53.333zM896 362.667h-33.28c-23.467 26.027-57.173 42.667-94.72 42.667s-71.253-16.64-94.72-42.667h-322.56c-23.467 26.027-56.747 42.667-94.72 42.667s-71.253-16.64-94.72-42.667h-33.28v85.333h768v-85.333z" />
<glyph unicode="&#xe92b;" glyph-name="alarm_add" d="M739.691 882.729l196.582-163.994-54.665-65.527-196.582 163.994 54.665 65.527zM284.303 882.756l54.665-65.527-196.582-163.994-54.665 65.527 196.582 163.994zM512 789.333c-212.053 0-384-171.947-384-384s171.947-384 384-384 384 171.947 384 384c0 212.053-171.947 384-384 384zM512 106.667c-164.693 0-298.667 133.973-298.667 298.667s133.973 298.667 298.667 298.667 298.667-133.973 298.667-298.667-133.973-298.667-298.667-298.667zM554.667 576h-85.333v-128h-128v-85.333h128v-128h85.333v128h128v85.333h-128z" />
<glyph unicode="&#xe92c;" glyph-name="alarm_off" d="M428.373 691.627c26.453 7.68 54.613 12.373 83.627 12.373 164.693 0 298.667-133.973 298.667-298.667 0-29.013-4.693-57.173-12.373-83.627l66.56-66.56c20.053 46.080 31.147 96.853 31.147 150.187 0 212.053-171.947 384-384 384-53.333 0-104.107-11.093-150.613-30.72l66.987-66.987zM739.691 882.729l196.582-163.994-54.665-65.527-196.582 163.994 54.665 65.527zM128.853 870.4c0.853 0.853-60.16-60.16-60.16-60.16l58.453-58.453-39.253-32.853 54.613-65.707 45.227 37.547 34.133-34.133c-58.453-67.413-93.867-155.307-93.867-251.307 0-212.053 171.947-384 384-384 96 0 183.893 35.413 251.307 93.867l89.6-89.6 60.16 60.16-784.213 784.64zM512 106.667c-164.693 0-298.667 133.973-298.667 298.667 0 72.533 26.027 139.093 69.12 190.72l420.267-420.267c-51.627-43.093-118.187-69.12-190.72-69.12zM319.147 800.853l19.627 16.213-54.613 65.707-25.6-21.333z" />
<glyph unicode="&#xe92d;" glyph-name="alarm_on" d="M449.707 340.053l-90.88 90.88-45.227-45.227 135.68-135.68 256 256-45.227 45.227zM739.691 882.729l196.582-163.994-54.665-65.527-196.582 163.994 54.665 65.527zM284.303 882.756l54.665-65.527-196.582-163.994-54.665 65.527 196.582 163.994zM512 789.333c-212.053 0-384-171.947-384-384s171.947-384 384-384 384 171.947 384 384c0 212.053-171.947 384-384 384zM512 106.667c-164.693 0-298.667 133.973-298.667 298.667s133.973 298.667 298.667 298.667 298.667-133.973 298.667-298.667-133.973-298.667-298.667-298.667z" />
<glyph unicode="&#xe92e;" glyph-name="alarm" d="M533.333 618.667h-64v-256l202.667-121.6 32 52.48-170.667 101.12zM739.691 882.729l196.582-163.994-54.665-65.527-196.582 163.994 54.665 65.527zM284.303 882.756l54.665-65.527-196.582-163.994-54.665 65.527 196.582 163.994zM512 789.333c-212.053 0-384-171.947-384-384s171.947-384 384-384 384 171.947 384 384c0 212.053-171.947 384-384 384zM512 106.667c-164.693 0-298.667 133.973-298.667 298.667s133.973 298.667 298.667 298.667 298.667-133.973 298.667-298.667-133.973-298.667-298.667-298.667z" />
<glyph unicode="&#xe92f;" glyph-name="album" d="M512 874.667c-235.52 0-426.667-191.147-426.667-426.667s191.147-426.667 426.667-426.667 426.667 191.147 426.667 426.667c0 235.52-191.147 426.667-426.667 426.667zM512 106.667c-188.16 0-341.333 153.173-341.333 341.333s153.173 341.333 341.333 341.333 341.333-153.173 341.333-341.333c0-188.16-153.173-341.333-341.333-341.333zM512 640c-106.24 0-192-85.76-192-192s85.76-192 192-192 192 85.76 192 192-85.76 192-192 192zM512 405.333c-23.467 0-42.667 19.2-42.667 42.667s19.2 42.667 42.667 42.667 42.667-19.2 42.667-42.667-19.2-42.667-42.667-42.667z" />
<glyph unicode="&#xe930;" glyph-name="all_inbox" d="M810.667 832h-597.333c-46.933 0-85.333-38.4-85.333-85.333v-298.667c0-46.933 38.4-85.333 85.333-85.333h597.333c46.933 0 85.333 38.4 85.333 85.333v298.667c0 46.933-38.4 85.333-85.333 85.333zM213.333 533.333h133.547c8.96-33.28 28.587-62.72 54.187-85.333h-187.733v85.333zM810.667 448h-187.733c25.6 22.613 45.227 52.053 54.187 85.333h133.547v-85.333zM810.667 618.667h-213.333v-42.667c0-45.653-39.68-85.333-85.333-85.333s-85.333 39.68-85.333 85.333v42.667h-213.333v128h597.333v-128zM725.333 320h-128v-42.667c0-20.053-8.107-38.4-20.48-53.333-15.787-19.2-39.253-32-64.853-32s-49.067 12.8-64.853 32c-12.373 14.933-20.48 33.28-20.48 53.333v42.667h-298.667v-170.667c0-46.933 38.4-85.333 85.333-85.333h597.333c46.933 0 85.333 38.4 85.333 85.333v170.667h-170.667zM213.333 234.667h133.547c0.853-3.84 2.56-7.253 3.84-10.667 10.24-29.013 27.733-54.613 50.347-74.667h-187.733v85.333zM810.667 149.333h-187.733c23.040 20.053 40.533 45.653 50.347 74.667 1.28 3.413 2.987 6.827 3.84 10.667h133.547v-85.333z" />
<glyph unicode="&#xe931;" glyph-name="all_inclusive" d="M793.6 677.547c-61.44 0-119.467-23.893-160.853-65.28l-299.947-266.24c-27.307-27.307-63.573-42.24-102.4-42.24-79.787 0-144.64 64.427-144.64 144.213s64.853 144.213 144.64 144.213c38.827 0 75.093-14.933 104.107-43.947l48.213-42.667 64.427 57.173-53.76 47.36c-43.52 43.52-101.547 67.413-162.987 67.413-127.147 0-230.4-103.253-230.4-229.547s103.253-229.547 230.4-229.547c61.44 0 119.467 23.893 160.853 65.28l299.947 266.24c27.307 27.307 63.573 42.24 102.4 42.24 79.787 0 144.64-64.427 144.64-144.213s-64.853-144.213-144.64-144.213c-38.4 0-75.093 14.933-104.107 43.947l-48.64 43.093-64.427-57.173 54.187-47.787c43.52-43.093 101.12-66.987 162.987-66.987 127.147 0 230.4 102.827 230.4 229.547s-103.253 229.12-230.4 229.12z" />
<glyph unicode="&#xe932;" glyph-name="all_out" d="M170.667 789.333v-170.667l170.667 170.667zM682.667 789.333l170.667-170.667v170.667zM853.333 106.667v170.667l-170.667-170.667zM170.667 106.667h170.667l-170.667 170.667zM810.667 448c0 165.12-133.547 298.667-298.667 298.667s-298.667-133.547-298.667-298.667c0-165.12 133.547-298.667 298.667-298.667s298.667 133.547 298.667 298.667zM512 234.667c-117.76 0-213.333 95.573-213.333 213.333s95.573 213.333 213.333 213.333c117.76 0 213.333-95.573 213.333-213.333s-95.573-213.333-213.333-213.333z" />
<glyph unicode="&#xe933;" glyph-name="alternate_email" d="M512 876.8c-235.52 0-426.667-191.147-426.667-426.667s191.147-426.667 426.667-426.667h213.333v85.333h-213.333c-185.173 0-341.333 156.16-341.333 341.333s156.16 341.333 341.333 341.333 341.333-156.16 341.333-341.333v-61.013c0-33.707-30.293-66.987-64-66.987s-64 33.28-64 66.987v61.013c0 117.76-95.573 213.333-213.333 213.333s-213.333-95.573-213.333-213.333 95.573-213.333 213.333-213.333c58.88 0 112.64 23.893 151.040 62.72 27.733-37.973 75.52-62.72 126.293-62.72 84.053 0 149.333 68.267 149.333 152.32v61.013c0 235.52-191.147 426.667-426.667 426.667zM512 322.133c-70.827 0-128 57.173-128 128s57.173 128 128 128 128-57.173 128-128-57.173-128-128-128z" />
<glyph unicode="&#xe934;" glyph-name="android" d="M256 192c0-23.467 19.2-42.667 42.667-42.667h42.667v-149.333c0-35.413 28.587-64 64-64s64 28.587 64 64v149.333h85.333v-149.333c0-35.413 28.587-64 64-64s64 28.587 64 64v149.333h42.667c23.467 0 42.667 19.2 42.667 42.667v426.667h-512v-426.667zM149.333 618.667c-35.413 0-64-28.587-64-64v-298.667c0-35.413 28.587-64 64-64s64 28.587 64 64v298.667c0 35.413-28.587 64-64 64zM874.667 618.667c-35.413 0-64-28.587-64-64v-298.667c0-35.413 28.587-64 64-64s64 28.587 64 64v298.667c0 35.413-28.587 64-64 64zM662.613 867.84l55.467 55.467c8.533 8.533 8.533 21.76 0 30.293s-21.76 8.533-30.293 0l-63.147-63.147c-33.707 17.067-72.107 26.88-112.64 26.88-40.96 0-79.36-9.813-113.493-26.88l-63.573 63.147c-8.533 8.533-21.76 8.533-30.293 0s-8.533-21.76 0-30.293l55.893-55.893c-63.147-46.507-104.533-121.173-104.533-206.080h512c0 84.907-41.387 160-105.387 206.507zM426.667 746.667h-42.667v42.667h42.667v-42.667zM640 746.667h-42.667v42.667h42.667v-42.667z" />
<glyph unicode="&#xe935;" glyph-name="announcement" d="M853.333 874.667h-682.667c-46.933 0-85.333-38.4-85.333-85.333v-768l170.667 170.667h597.333c46.933 0 85.333 38.4 85.333 85.333v512c0 46.933-38.4 85.333-85.333 85.333zM853.333 277.333h-632.747l-49.92-49.92v561.92h682.667v-512zM469.333 746.667h85.333v-256h-85.333v256zM469.333 405.333h85.333v-85.333h-85.333v85.333z" />
<glyph unicode="&#xe936;" glyph-name="apps" d="M170.667 618.667h170.667v170.667h-170.667v-170.667zM426.667 106.667h170.667v170.667h-170.667v-170.667zM170.667 106.667h170.667v170.667h-170.667v-170.667zM170.667 362.667h170.667v170.667h-170.667v-170.667zM426.667 362.667h170.667v170.667h-170.667v-170.667zM682.667 789.333v-170.667h170.667v170.667h-170.667zM426.667 618.667h170.667v170.667h-170.667v-170.667zM682.667 362.667h170.667v170.667h-170.667v-170.667zM682.667 106.667h170.667v170.667h-170.667v-170.667z" />
<glyph unicode="&#xe937;" glyph-name="archive" d="M876.373 736.853l-59.307 71.68c-11.52 14.507-29.013 23.467-49.067 23.467h-512c-20.053 0-37.547-8.96-49.493-23.467l-58.88-71.68c-12.373-14.507-19.627-33.707-19.627-54.187v-533.333c0-46.933 38.4-85.333 85.333-85.333h597.333c46.933 0 85.333 38.4 85.333 85.333v533.333c0 20.48-7.253 39.68-19.627 54.187zM266.24 746.667h491.52l34.56-41.387h-560.213l34.133 41.387zM213.333 149.333v469.333h597.333v-469.333h-597.333zM573.867 533.333h-123.733v-128h-108.8l170.667-170.667 170.667 170.667h-108.8z" />
<glyph unicode="&#xe938;" glyph-name="arrow_back_ios" d="M747.093 794.88l-75.947 75.52-421.973-422.4 422.4-422.4 75.52 75.52-346.88 346.88 346.88 346.88z" />
<glyph unicode="&#xe939;" glyph-name="arrow_back" d="M853.333 490.667h-519.253l238.507 238.507-60.587 60.16-341.333-341.333 341.333-341.333 60.16 60.16-238.080 238.507h519.253v85.333z" />
<glyph unicode="&#xe93a;" glyph-name="arrow_downward" d="M853.333 448l-60.16 60.16-238.507-238.080v519.253h-85.333v-519.253l-238.080 238.507-60.587-60.587 341.333-341.333 341.333 341.333z" />
<glyph unicode="&#xe93b;" glyph-name="arrow_drop_down_circle" d="M512 789.333c188.16 0 341.333-153.173 341.333-341.333s-153.173-341.333-341.333-341.333-341.333 153.173-341.333 341.333 153.173 341.333 341.333 341.333zM512 874.667c-235.52 0-426.667-191.147-426.667-426.667s191.147-426.667 426.667-426.667 426.667 191.147 426.667 426.667-191.147 426.667-426.667 426.667v0zM512 320l-170.667 170.667h341.333z" />
<glyph unicode="&#xe93c;" glyph-name="arrow_drop_down" d="M298.667 533.333l213.333-213.333 213.333 213.333h-426.667z" />
<glyph unicode="&#xe93d;" glyph-name="arrow_drop_up" d="M298.667 362.667l213.333 213.333 213.333-213.333h-426.667z" />
<glyph unicode="&#xe93e;" glyph-name="arrow_forward_ios" d="M276.907 101.12l75.52-75.52 422.4 422.4-422.4 422.4-75.52-75.52 346.88-346.88-346.88-346.88z" />
<glyph unicode="&#xe93f;" glyph-name="arrow_forward" d="M512 789.333l-60.16-60.16 238.080-238.507h-519.253v-85.333h519.253l-238.080-238.507 60.16-60.16 341.333 341.333-341.333 341.333z" />
<glyph unicode="&#xe940;" glyph-name="arrow_left" d="M597.333 661.333l-213.333-213.333 213.333-213.333v426.667z" />
<glyph unicode="&#xe941;" glyph-name="arrow_right_alt" d="M683.093 490.667h-512.427v-85.333h512.427v-128l170.24 170.667-170.24 170.667v-128z" />
<glyph unicode="&#xe942;" glyph-name="arrow_right" d="M426.667 234.667l213.333 213.333-213.333 213.333v-426.667z" />
<glyph unicode="&#xe943;" glyph-name="arrow_upward" d="M170.667 448l60.16-60.16 238.507 238.080v-519.253h85.333v519.253l238.080-238.507 60.587 60.587-341.333 341.333-341.333-341.333z" />
<glyph unicode="&#xe944;" glyph-name="art_track" d="M938.667 405.333h-341.333v85.333h341.333v-85.333zM938.667 661.333h-341.333v-85.333h341.333v85.333zM597.333 234.667h341.333v85.333h-341.333v-85.333zM512 576v-256c0-46.933-38.4-85.333-85.333-85.333h-256c-46.933 0-85.333 38.4-85.333 85.333v256c0 46.933 38.4 85.333 85.333 85.333h256c46.933 0 85.333-38.4 85.333-85.333zM448 320l-96 128-74.667-96.427-53.333 64.427-74.667-96h298.667z" />
<glyph unicode="&#xe945;" glyph-name="aspect_ratio" d="M810.667 448h-85.333v-128h-128v-85.333h213.333v213.333zM298.667 576h128v85.333h-213.333v-213.333h85.333v128zM896 832h-768c-46.933 0-85.333-38.4-85.333-85.333v-597.333c0-46.933 38.4-85.333 85.333-85.333h768c46.933 0 85.333 38.4 85.333 85.333v597.333c0 46.933-38.4 85.333-85.333 85.333zM896 148.907h-768v598.187h768v-598.187z" />
<glyph unicode="&#xe946;" glyph-name="assessment" d="M810.667 832h-597.333c-46.933 0-85.333-38.4-85.333-85.333v-597.333c0-46.933 38.4-85.333 85.333-85.333h597.333c46.933 0 85.333 38.4 85.333 85.333v597.333c0 46.933-38.4 85.333-85.333 85.333zM810.667 149.333h-597.333v597.333h597.333v-597.333zM298.667 533.333h85.333v-298.667h-85.333v298.667zM469.333 661.333h85.333v-426.667h-85.333v426.667zM640 405.333h85.333v-170.667h-85.333v170.667z" />
<glyph unicode="&#xe947;" glyph-name="assignment_ind" d="M810.667 832h-178.347c-17.92 49.493-64.853 85.333-120.32 85.333s-102.4-35.84-120.32-85.333h-178.347c-46.933 0-85.333-38.4-85.333-85.333v-597.333c0-46.933 38.4-85.333 85.333-85.333h597.333c46.933 0 85.333 38.4 85.333 85.333v597.333c0 46.933-38.4 85.333-85.333 85.333zM512 842.667c9.387 0 17.493-4.267 23.467-10.667 5.12-5.547 8.533-13.227 8.533-21.333 0-17.493-14.507-32-32-32s-32 14.507-32 32c0 8.107 3.413 15.787 8.533 21.333 5.973 6.4 14.080 10.667 23.467 10.667zM810.667 149.333h-597.333v597.333h597.333v-597.333zM512 704c-70.4 0-128-57.6-128-128s57.6-128 128-128 128 57.6 128 128-57.6 128-128 128zM512 533.333c-23.467 0-42.667 19.2-42.667 42.667s19.2 42.667 42.667 42.667 42.667-19.2 42.667-42.667-19.2-42.667-42.667-42.667zM256 257.28v-65.28h512v65.28c0 106.667-169.387 152.747-256 152.747s-256-45.653-256-152.747zM354.56 277.333c29.44 23.893 101.547 47.787 157.44 47.787s128.427-23.893 157.44-47.787h-314.88z" />
<glyph unicode="&#xe948;" glyph-name="assignment_late" d="M469.333 320h85.333v-85.333h-85.333v85.333zM469.333 661.333h85.333v-256h-85.333v256zM810.667 832v0h-178.347c-17.92 49.493-64.853 85.333-120.32 85.333s-102.4-35.84-120.32-85.333h-178.347c-5.973 0-11.52-0.427-17.067-1.707-16.64-3.413-31.573-11.947-43.093-23.467-7.68-7.68-14.080-17.067-18.347-27.307-4.267-9.813-6.827-20.907-6.827-32.853v-597.333c0-11.52 2.56-23.040 6.827-33.28s10.667-19.2 18.347-27.307c11.52-11.52 26.453-20.053 43.093-23.467 5.547-0.853 11.093-1.28 17.067-1.28v0h597.333c46.933 0 85.333 38.4 85.333 85.333v597.333c0 46.933-38.4 85.333-85.333 85.333zM512 842.667c17.493 0 32-14.507 32-32s-14.507-32-32-32c-17.493 0-32 14.507-32 32s14.507 32 32 32zM810.667 149.333h-597.333v597.333h597.333v-597.333z" />
<glyph unicode="&#xe949;" glyph-name="assignment_return" d="M512 362.667h170.667v170.667h-170.667v128l-213.333-213.333 213.333-213.333zM810.667 832v0h-178.347c-17.92 49.493-64.853 85.333-120.32 85.333s-102.4-35.84-120.32-85.333h-178.347c-5.973 0-11.52-0.427-17.067-1.707-16.64-3.413-31.573-11.947-43.093-23.467-7.68-7.68-14.080-17.067-18.347-27.307-4.267-9.813-6.827-20.907-6.827-32.853v-597.333c0-11.52 2.56-23.040 6.827-33.28s10.667-19.2 18.347-27.307c11.52-11.52 26.453-20.053 43.093-23.467 5.547-0.853 11.093-1.28 17.067-1.28v0h597.333c46.933 0 85.333 38.4 85.333 85.333v597.333c0 46.933-38.4 85.333-85.333 85.333zM512 842.667c17.493 0 32-14.507 32-32s-14.507-32-32-32c-17.493 0-32 14.507-32 32s14.507 32 32 32zM810.667 149.333h-597.333v597.333h597.333v-597.333z" />
<glyph unicode="&#xe94a;" glyph-name="assignment_returned" d="M725.333 448h-128v170.667h-170.667v-170.667h-128l213.333-213.333zM810.667 832v0h-178.347c-17.92 49.493-64.853 85.333-120.32 85.333s-102.4-35.84-120.32-85.333h-178.347c-5.973 0-11.52-0.427-17.067-1.707-16.64-3.413-31.573-11.947-43.093-23.467-7.68-7.68-14.080-17.067-18.347-27.307-4.267-9.813-6.827-20.907-6.827-32.853v-597.333c0-11.52 2.56-23.040 6.827-33.28s10.667-19.2 18.347-27.307c11.52-11.52 26.453-20.053 43.093-23.467 5.547-0.853 11.093-1.28 17.067-1.28v0h597.333c46.933 0 85.333 38.4 85.333 85.333v597.333c0 46.933-38.4 85.333-85.333 85.333zM512 842.667c17.493 0 32-14.507 32-32s-14.507-32-32-32c-17.493 0-32 14.507-32 32s14.507 32 32 32zM810.667 149.333h-597.333v597.333h597.333v-597.333z" />
<glyph unicode="&#xe94b;" glyph-name="assignment_turned_in" d="M768 576l-60.16 60.587-281.173-281.173-110.507 110.080-60.16-60.16 170.667-170.667zM810.667 832v0h-178.347c-17.92 49.493-64.853 85.333-120.32 85.333s-102.4-35.84-120.32-85.333h-178.347c-5.973 0-11.52-0.427-17.067-1.707-16.64-3.413-31.573-11.947-43.093-23.467-7.68-7.68-14.080-17.067-18.347-27.307-4.267-9.813-6.827-20.907-6.827-32.853v-597.333c0-11.52 2.56-23.040 6.827-33.28s10.667-19.2 18.347-27.307c11.52-11.52 26.453-20.053 43.093-23.467 5.547-0.853 11.093-1.28 17.067-1.28v0h597.333c46.933 0 85.333 38.4 85.333 85.333v597.333c0 46.933-38.4 85.333-85.333 85.333zM512 842.667c17.493 0 32-14.507 32-32s-14.507-32-32-32c-17.493 0-32 14.507-32 32s14.507 32 32 32zM810.667 149.333h-597.333v597.333h597.333v-597.333z" />
<glyph unicode="&#xe94c;" glyph-name="assignment" d="M298.667 320h298.667v-85.333h-298.667v85.333zM298.667 490.667h426.667v-85.333h-426.667v85.333zM298.667 661.333h426.667v-85.333h-426.667v85.333zM810.667 832v0h-178.347c-17.92 49.493-64.853 85.333-120.32 85.333s-102.4-35.84-120.32-85.333h-178.347c-5.973 0-11.52-0.427-17.067-1.707-16.64-3.413-31.573-11.947-43.093-23.467-7.68-7.68-14.080-17.067-18.347-27.307-4.267-9.813-6.827-20.907-6.827-32.853v-597.333c0-11.52 2.56-23.040 6.827-33.28s10.667-19.2 18.347-27.307c11.52-11.52 26.453-20.053 43.093-23.467 5.547-0.853 11.093-1.28 17.067-1.28v0h597.333c46.933 0 85.333 38.4 85.333 85.333v597.333c0 46.933-38.4 85.333-85.333 85.333zM512 842.667c17.493 0 32-14.507 32-32s-14.507-32-32-32c-17.493 0-32 14.507-32 32s14.507 32 32 32zM810.667 149.333h-597.333v597.333h597.333v-597.333z" />
<glyph unicode="&#xe94d;" glyph-name="assistant_photo" d="M527.36 704l3.413-16.64 13.653-68.693h223.573v-256h-143.36l-3.413 16.64-13.653 68.693h-308.907v256h228.693zM597.333 789.333h-384v-725.333h85.333v298.667h238.933l17.067-85.333h298.667v426.667h-238.933l-17.067 85.333z" />
<glyph unicode="&#xe94e;" glyph-name="assistant" d="M810.667 874.667h-597.333c-46.933 0-85.333-38.4-85.333-85.333v-597.333c0-46.933 38.4-85.333 85.333-85.333h170.667l128-128 128 128h170.667c46.933 0 85.333 38.4 85.333 85.333v597.333c0 46.933-38.4 85.333-85.333 85.333zM810.667 192h-206.080l-92.587-92.587-92.587 92.587h-206.080v597.333h597.333v-597.333zM512 234.667l80.213 175.787 175.787 80.213-175.787 80.213-80.213 175.787-80.213-175.787-175.787-80.213 175.787-80.213z" />
<glyph unicode="&#xe94f;" glyph-name="atm" d="M341.333 576v-64h96v-192h64v192h96v64h-256zM256 576h-128c-23.467 0-42.667-19.2-42.667-42.667v-213.333h64v64h85.333v-64h64v213.333c0 23.467-19.2 42.667-42.667 42.667zM234.667 448h-85.333v64h85.333v-64zM896 576h-192c-23.467 0-42.667-19.2-42.667-42.667v-213.333h64v192h42.667v-149.333h64v149.76h42.667v-192.427h64v213.333c0 23.467-19.2 42.667-42.667 42.667z" />
<glyph unicode="&#xe950;" glyph-name="attach_file" d="M704 704v-490.667c0-94.293-76.373-170.667-170.667-170.667s-170.667 76.373-170.667 170.667v533.333c0 58.88 47.787 106.667 106.667 106.667s106.667-47.787 106.667-106.667v-448c0-23.467-19.2-42.667-42.667-42.667s-42.667 19.2-42.667 42.667v405.333h-64v-405.333c0-58.88 47.787-106.667 106.667-106.667s106.667 47.787 106.667 106.667v448c0 94.293-76.373 170.667-170.667 170.667s-170.667-76.373-170.667-170.667v-533.333c0-129.707 104.96-234.667 234.667-234.667s234.667 104.96 234.667 234.667v490.667h-64z" />
<glyph unicode="&#xe951;" glyph-name="attach_money" d="M503.467 494.933c-96.853 25.173-128 51.2-128 91.733 0 46.507 43.093 78.933 115.2 78.933 75.947 0 104.107-36.267 106.667-89.6h94.293c-2.987 73.387-47.787 140.8-136.96 162.56v93.44h-128v-92.16c-82.773-17.92-149.333-71.68-149.333-154.027 0-98.56 81.493-147.627 200.533-176.213 106.667-25.6 128-63.147 128-102.827 0-29.44-20.907-76.373-115.2-76.373-87.893 0-122.453 39.253-127.147 89.6h-93.867c5.12-93.44 75.093-145.92 157.013-163.413v-92.587h128v91.733c83.2 15.787 149.333 64 149.333 151.467 0 121.173-103.68 162.56-200.533 187.733z" />
<glyph unicode="&#xe952;" glyph-name="attachment" d="M789.333 277.333h-490.667c-94.293 0-170.667 76.373-170.667 170.667s76.373 170.667 170.667 170.667h533.333c58.88 0 106.667-47.787 106.667-106.667s-47.787-106.667-106.667-106.667h-448c-23.467 0-42.667 19.2-42.667 42.667s19.2 42.667 42.667 42.667h405.333v64h-405.333c-58.88 0-106.667-47.787-106.667-106.667s47.787-106.667 106.667-106.667h448c94.293 0 170.667 76.373 170.667 170.667s-76.373 170.667-170.667 170.667h-533.333c-129.707 0-234.667-104.96-234.667-234.667s104.96-234.667 234.667-234.667h490.667v64z" />
<glyph unicode="&#xe953;" glyph-name="audiotrack" d="M512 832v-450.133c-25.173 14.507-54.187 23.467-85.333 23.467-94.293 0-170.667-76.373-170.667-170.667s76.373-170.667 170.667-170.667 170.667 76.373 170.667 170.667v426.667h170.667v170.667h-256zM426.667 149.333c-46.933 0-85.333 38.4-85.333 85.333s38.4 85.333 85.333 85.333 85.333-38.4 85.333-85.333c0-46.933-38.4-85.333-85.333-85.333z" />
<glyph unicode="&#xe954;" glyph-name="autorenew" d="M512 704v-128l170.667 170.667-170.667 170.667v-128c-188.587 0-341.333-152.747-341.333-341.333 0-66.987 19.627-129.28 52.907-181.76l62.293 62.293c-19.2 35.413-29.867 76.373-29.867 119.467 0 141.227 114.773 256 256 256zM800.427 629.76l-62.293-62.293c18.773-35.84 29.867-76.373 29.867-119.467 0-141.227-114.773-256-256-256v128l-170.667-170.667 170.667-170.667v128c188.587 0 341.333 152.747 341.333 341.333 0 66.987-19.627 129.28-52.907 181.76z" />
<glyph unicode="&#xe955;" glyph-name="av_timer" d="M469.333 234.667c0-23.467 19.2-42.667 42.667-42.667s42.667 19.2 42.667 42.667-19.2 42.667-42.667 42.667-42.667-19.2-42.667-42.667zM469.333 832v-170.667h85.333v81.92c144.64-20.907 256-144.64 256-295.253 0-165.12-133.547-298.667-298.667-298.667s-298.667 133.547-298.667 298.667c0 71.68 25.173 137.387 67.413 188.587l231.253-231.253 60.16 60.16-290.133 290.133v-0.853c-93.44-69.973-154.027-180.907-154.027-306.773 0-212.053 171.52-384 384-384 212.053 0 384 171.947 384 384s-171.947 384-384 384h-42.667zM768 448c0 23.467-19.2 42.667-42.667 42.667s-42.667-19.2-42.667-42.667 19.2-42.667 42.667-42.667 42.667 19.2 42.667 42.667zM256 448c0-23.467 19.2-42.667 42.667-42.667s42.667 19.2 42.667 42.667-19.2 42.667-42.667 42.667-42.667-19.2-42.667-42.667z" />
<glyph unicode="&#xe956;" glyph-name="backspace" d="M938.667 832h-640c-29.44 0-52.48-14.933-67.84-37.547l-230.827-346.453 230.827-346.027c15.36-22.613 38.4-37.973 67.84-37.973h640c46.933 0 85.333 38.4 85.333 85.333v597.333c0 46.933-38.4 85.333-85.333 85.333zM938.667 149.333h-637.013l-199.253 298.667 198.827 298.667c0 0 0 0 0 0h637.44v-597.333zM444.16 234.667l153.173 153.173 153.173-153.173 60.16 60.16-153.173 153.173 153.173 153.173-60.16 60.16-153.173-153.173-153.173 153.173-60.16-60.16 153.173-153.173-153.173-153.173z" />
<glyph unicode="&#xe957;" glyph-name="backup" d="M825.6 531.627c-29.013 147.2-158.293 257.707-313.6 257.707-123.307 0-230.4-69.973-283.733-172.373-128.427-13.653-228.267-122.453-228.267-254.293 0-141.227 114.773-256 256-256h554.667c117.76 0 213.333 95.573 213.333 213.333 0 112.64-87.467 203.947-198.4 211.627zM810.667 192h-554.667c-94.293 0-170.667 76.373-170.667 170.667 0 87.467 65.28 160.427 151.893 169.387l45.653 4.693 21.333 40.533c40.533 78.080 119.893 126.72 207.787 126.72 111.787 0 208.213-79.36 229.973-189.013l12.8-64 65.28-4.693c66.56-4.267 118.613-60.16 118.613-126.293 0-70.4-57.6-128-128-128zM341.333 405.333h108.8v-128h123.733v128h108.8l-170.667 170.667z" />
<glyph unicode="&#xe958;" glyph-name="ballot" d="M554.667 640h213.333v-85.333h-213.333v85.333zM554.667 341.333h213.333v-85.333h-213.333v85.333zM810.667 832h-597.333c-46.933 0-85.333-38.4-85.333-85.333v-597.333c0-46.933 38.4-85.333 85.333-85.333h597.333c46.933 0 85.333 38.4 85.333 85.333v597.333c0 46.933-38.4 85.333-85.333 85.333zM810.667 149.333h-597.333v597.333h597.333v-597.333zM469.333 704h-213.333v-213.333h213.333v213.333zM426.667 533.333h-128v128h128v-128zM469.333 405.333h-213.333v-213.333h213.333v213.333zM426.667 234.667h-128v128h128v-128z" />
<glyph unicode="&#xe959;" glyph-name="bar_chart" d="M213.333 567.467h128v-418.133h-128v418.133zM452.267 746.667h119.467v-597.333h-119.467v597.333zM691.2 405.333h119.467v-256h-119.467v256z" />
<glyph unicode="&#xe95a;" glyph-name="battery_alert" d="M668.587 789.333h-71.253v85.333h-170.667v-85.333h-71.253c-31.147 0-56.747-25.6-56.747-56.747v-654.080c0-31.573 25.6-57.173 56.747-57.173h312.747c31.573 0 57.173 25.6 57.173 56.747v654.507c0 31.147-25.6 56.747-56.747 56.747zM554.667 192h-85.333v85.333h85.333v-85.333zM554.667 362.667h-85.333v213.333h85.333v-213.333z" />
<glyph unicode="&#xe95b;" glyph-name="battery_charging_full" d="M668.587 789.333h-71.253v85.333h-170.667v-85.333h-71.253c-31.147 0-56.747-25.6-56.747-56.747v-654.080c0-31.573 25.6-57.173 56.747-57.173h312.747c31.573 0 57.173 25.6 57.173 56.747v654.507c0 31.147-25.6 56.747-56.747 56.747zM469.333 106.667v234.667h-85.333l170.667 320v-234.667h85.333l-170.667-320z" />
<glyph unicode="&#xe95c;" glyph-name="battery_full" d="M668.587 789.333h-71.253v85.333h-170.667v-85.333h-71.253c-31.147 0-56.747-25.6-56.747-56.747v-654.080c0-31.573 25.6-57.173 56.747-57.173h312.747c31.573 0 57.173 25.6 57.173 56.747v654.507c0 31.147-25.6 56.747-56.747 56.747z" />
<glyph unicode="&#xe95d;" glyph-name="battery_std" d="M668.587 789.333h-71.253v85.333h-170.667v-85.333h-71.253c-31.147 0-56.747-25.6-56.747-56.747v-654.080c0-31.573 25.6-57.173 56.747-57.173h312.747c31.573 0 57.173 25.6 57.173 56.747v654.507c0 31.147-25.6 56.747-56.747 56.747z" />
<glyph unicode="&#xe95e;" glyph-name="battery_unknown" d="M668.587 789.333h-71.253v85.333h-170.667v-85.333h-71.253c-31.147 0-56.747-25.6-56.747-56.747v-654.080c0-31.573 25.6-57.173 56.747-57.173h312.747c31.573 0 57.173 25.6 57.173 56.747v654.507c0 31.147-25.6 56.747-56.747 56.747zM554.667 192h-85.333v85.333h85.333v-85.333zM610.133 418.56c0 0-16.213-17.92-28.587-30.293-20.48-20.48-35.413-49.067-35.413-68.267h-68.267c0 35.413 19.627 64.853 39.68 85.333l39.68 40.107c11.52 11.52 18.773 27.733 18.773 45.227 0 35.413-28.587 64-64 64s-64-28.587-64-64h-64c0 70.827 57.173 128 128 128s128-57.173 128-128c0-28.16-11.52-53.76-29.867-72.107z" />
<glyph unicode="&#xe95f;" glyph-name="beach_access" d="M896.052 125.046l-60.943-60.943-274.845 274.845 60.943 60.943 274.845-274.845zM559.787 832c-110.080 0-220.16-41.813-304.64-125.867 0 0 0 0 0 0s0 0 0 0-0.427-0.427-0.427-0.427c-168.533-168.533-168.533-442.027 0-610.56l610.133 610.56c-84.053 84.053-194.56 126.293-305.067 126.293zM261.973 223.147c-31.573 52.907-48.64 113.493-48.64 177.067 0 39.68 6.827 77.653 19.627 113.92 8.107-81.493 37.973-161.707 88.32-232.107l-59.307-58.88zM383.147 344.32c-57.6 87.467-79.36 192-58.88 291.413 24.747 5.12 49.493 7.68 74.667 7.68 76.8 0 151.467-23.467 216.747-66.56l-232.533-232.533zM445.867 727.040c36.267 12.8 74.24 19.627 113.92 19.627 63.573 0 124.16-17.067 177.067-48.64l-59.307-59.307c-70.4 50.347-150.187 80.213-231.68 88.32z" />
<glyph unicode="&#xe960;" glyph-name="beenhere" d="M810.667 917.333h-597.333c-46.933 0-84.907-38.4-84.907-85.333l-0.427-551.68c0-29.44 14.933-55.467 37.547-70.827l346.453-230.827 346.027 230.827c22.613 15.36 37.547 41.387 37.547 70.827l0.427 551.68c0 46.933-38.4 85.333-85.333 85.333zM512 81.067l-298.667 198.827v552.107h597.333v-551.68l-298.667-199.253zM426.24 397.653l-110.080 110.507-60.16-60.16 170.667-170.667 341.333 341.333-60.587 60.587z" />
<glyph unicode="&#xe961;" glyph-name="block" d="M512 874.667c-235.52 0-426.667-191.147-426.667-426.667s191.147-426.667 426.667-426.667 426.667 191.147 426.667 426.667-191.147 426.667-426.667 426.667zM170.667 448c0 188.587 152.747 341.333 341.333 341.333 78.933 0 151.467-26.88 209.067-72.107l-478.293-478.293c-45.227 57.6-72.107 130.133-72.107 209.067zM512 106.667c-78.933 0-151.467 26.88-209.067 72.107l478.293 478.293c45.227-57.6 72.107-130.133 72.107-209.067 0-188.587-152.747-341.333-341.333-341.333z" />
<glyph unicode="&#xe962;" glyph-name="bluetooth_audio" d="M607.573 447.573l98.987-98.987c11.947 30.72 18.773 64.427 18.773 99.413s-6.827 67.84-18.347 98.56l-99.413-98.987zM833.28 673.707l-53.76-53.76c26.88-51.627 41.813-109.653 41.813-171.52s-15.36-120.32-41.813-171.52l51.2-51.2c41.387 65.707 65.707 143.36 65.707 226.56-0.427 80.64-23.467 156.587-63.147 221.44zM670.293 631.040l-243.627 243.627h-42.667v-323.84l-195.84 195.84-60.16-60.16 238.507-238.507-238.507-238.507 60.16-60.16 195.84 195.84v-323.84h42.667l243.627 243.627-183.467 183.040 183.467 183.040zM469.333 711.253l80.213-80.213-80.213-80.213v160.427zM549.547 264.96l-80.213-80.213v160.427l80.213-80.213z" />
<glyph unicode="&#xe963;" glyph-name="bluetooth_connected" d="M298.667 448l-85.333 85.333-85.333-85.333 85.333-85.333 85.333 85.333zM755.627 631.040l-243.627 243.627h-42.667v-323.84l-195.84 195.84-60.16-60.16 238.507-238.507-238.507-238.507 60.16-60.16 195.84 195.84v-323.84h42.667l243.627 243.627-183.467 183.040 183.467 183.040zM554.667 711.253l80.213-80.213-80.213-80.213v160.427zM634.88 264.96l-80.213-80.213v160.427l80.213-80.213zM810.667 533.333l-85.333-85.333 85.333-85.333 85.333 85.333-85.333 85.333z" />
<glyph unicode="&#xe964;" glyph-name="bluetooth_disabled" d="M554.667 711.253l80.213-80.213-68.267-68.267 60.16-60.16 128.853 128.853-243.627 243.2h-42.667v-214.613l85.333-85.333v136.533zM230.827 789.333l-60.16-60.16 281.173-281.173-238.507-238.507 60.16-60.16 195.84 195.84v-323.84h42.667l183.040 183.040 98.133-97.707 60.16 60.16-622.507 622.507zM554.667 184.747v160.427l80.213-80.213-80.213-80.213z" />
<glyph unicode="&#xe965;" glyph-name="bluetooth_searching" d="M607.573 447.573l98.987-98.987c11.947 30.72 18.773 64.427 18.773 99.413s-6.827 67.84-18.347 98.56l-99.413-98.987zM833.28 673.707l-53.76-53.76c26.88-51.627 41.813-109.653 41.813-171.52s-15.36-120.32-41.813-171.52l51.2-51.2c41.387 65.707 65.707 143.36 65.707 226.56-0.427 80.64-23.467 156.587-63.147 221.44zM670.293 631.040l-243.627 243.627h-42.667v-323.84l-195.84 195.84-60.16-60.16 238.507-238.507-238.507-238.507 60.16-60.16 195.84 195.84v-323.84h42.667l243.627 243.627-183.467 183.040 183.467 183.040zM469.333 711.253l80.213-80.213-80.213-80.213v160.427zM549.547 264.96l-80.213-80.213v160.427l80.213-80.213z" />
<glyph unicode="&#xe966;" glyph-name="bluetooth" d="M755.627 631.040l-243.627 243.627h-42.667v-323.84l-195.84 195.84-60.16-60.16 238.507-238.507-238.507-238.507 60.16-60.16 195.84 195.84v-323.84h42.667l243.627 243.627-183.467 183.040 183.467 183.040zM554.667 711.253l80.213-80.213-80.213-80.213v160.427zM634.88 264.96l-80.213-80.213v160.427l80.213-80.213z" />
<glyph unicode="&#xe967;" glyph-name="blur_circular" d="M426.667 576c-23.467 0-42.667-19.2-42.667-42.667s19.2-42.667 42.667-42.667 42.667 19.2 42.667 42.667-19.2 42.667-42.667 42.667zM426.667 405.333c-23.467 0-42.667-19.2-42.667-42.667s19.2-42.667 42.667-42.667 42.667 19.2 42.667 42.667-19.2 42.667-42.667 42.667zM298.667 554.667c-11.947 0-21.333-9.387-21.333-21.333s9.387-21.333 21.333-21.333 21.333 9.387 21.333 21.333-9.387 21.333-21.333 21.333zM426.667 256c-11.947 0-21.333-9.387-21.333-21.333s9.387-21.333 21.333-21.333 21.333 9.387 21.333 21.333-9.387 21.333-21.333 21.333zM298.667 384c-11.947 0-21.333-9.387-21.333-21.333s9.387-21.333 21.333-21.333 21.333 9.387 21.333 21.333-9.387 21.333-21.333 21.333zM426.667 640c11.947 0 21.333 9.387 21.333 21.333s-9.387 21.333-21.333 21.333-21.333-9.387-21.333-21.333 9.387-21.333 21.333-21.333zM597.333 576c-23.467 0-42.667-19.2-42.667-42.667s19.2-42.667 42.667-42.667 42.667 19.2 42.667 42.667-19.2 42.667-42.667 42.667zM597.333 640c11.947 0 21.333 9.387 21.333 21.333s-9.387 21.333-21.333 21.333-21.333-9.387-21.333-21.333 9.387-21.333 21.333-21.333zM725.333 384c-11.947 0-21.333-9.387-21.333-21.333s9.387-21.333 21.333-21.333 21.333 9.387 21.333 21.333-9.387 21.333-21.333 21.333zM725.333 554.667c-11.947 0-21.333-9.387-21.333-21.333s9.387-21.333 21.333-21.333 21.333 9.387 21.333 21.333-9.387 21.333-21.333 21.333zM512 874.667c-235.52 0-426.667-191.147-426.667-426.667s191.147-426.667 426.667-426.667 426.667 191.147 426.667 426.667-191.147 426.667-426.667 426.667zM512 106.667c-188.587 0-341.333 152.747-341.333 341.333s152.747 341.333 341.333 341.333 341.333-152.747 341.333-341.333-152.747-341.333-341.333-341.333zM597.333 256c-11.947 0-21.333-9.387-21.333-21.333s9.387-21.333 21.333-21.333 21.333 9.387 21.333 21.333-9.387 21.333-21.333 21.333zM597.333 405.333c-23.467 0-42.667-19.2-42.667-42.667s19.2-42.667 42.667-42.667 42.667 19.2 42.667 42.667-19.2 42.667-42.667 42.667z" />
<glyph unicode="&#xe968;" glyph-name="blur_linear" d="M213.333 213.333c35.413 0 64 28.587 64 64s-28.587 64-64 64-64-28.587-64-64 28.587-64 64-64zM384 405.333c23.467 0 42.667 19.2 42.667 42.667s-19.2 42.667-42.667 42.667-42.667-19.2-42.667-42.667 19.2-42.667 42.667-42.667zM384 576c23.467 0 42.667 19.2 42.667 42.667s-19.2 42.667-42.667 42.667-42.667-19.2-42.667-42.667 19.2-42.667 42.667-42.667zM128 64h768v85.333h-768v-85.333zM213.333 554.667c35.413 0 64 28.587 64 64s-28.587 64-64 64-64-28.587-64-64 28.587-64 64-64zM213.333 384c35.413 0 64 28.587 64 64s-28.587 64-64 64-64-28.587-64-64 28.587-64 64-64zM384 234.667c23.467 0 42.667 19.2 42.667 42.667s-19.2 42.667-42.667 42.667-42.667-19.2-42.667-42.667c0-23.467 19.2-42.667 42.667-42.667zM725.333 256c11.947 0 21.333 9.387 21.333 21.333s-9.387 21.333-21.333 21.333-21.333-9.387-21.333-21.333c0-11.947 9.387-21.333 21.333-21.333zM128 832v-85.333h768v85.333h-768zM725.333 597.333c11.947 0 21.333 9.387 21.333 21.333s-9.387 21.333-21.333 21.333-21.333-9.387-21.333-21.333c0-11.947 9.387-21.333 21.333-21.333zM725.333 426.667c11.947 0 21.333 9.387 21.333 21.333s-9.387 21.333-21.333 21.333-21.333-9.387-21.333-21.333 9.387-21.333 21.333-21.333zM554.667 576c23.467 0 42.667 19.2 42.667 42.667s-19.2 42.667-42.667 42.667-42.667-19.2-42.667-42.667 19.2-42.667 42.667-42.667zM554.667 405.333c23.467 0 42.667 19.2 42.667 42.667s-19.2 42.667-42.667 42.667-42.667-19.2-42.667-42.667 19.2-42.667 42.667-42.667zM554.667 234.667c23.467 0 42.667 19.2 42.667 42.667s-19.2 42.667-42.667 42.667-42.667-19.2-42.667-42.667c0-23.467 19.2-42.667 42.667-42.667z" />
<glyph unicode="&#xe969;" glyph-name="blur_off" d="M640 704c0-23.564-19.103-42.667-42.667-42.667s-42.667 19.103-42.667 42.667c0 23.564 19.103 42.667 42.667 42.667s42.667-19.103 42.667-42.667zM588.8 470.187l8.533-0.853c35.413 0 64 28.587 64 64s-28.587 64-64 64-64-28.587-64-64l0.853-8.533c3.84-28.587 26.027-50.773 54.613-54.613zM597.333 810.667c11.947 0 21.333 9.387 21.333 21.333s-9.387 21.333-21.333 21.333-21.333-9.387-21.333-21.333c0-11.947 9.387-21.333 21.333-21.333zM426.667 810.667c11.947 0 21.333 9.387 21.333 21.333s-9.387 21.333-21.333 21.333-21.333-9.387-21.333-21.333c0-11.947 9.387-21.333 21.333-21.333zM810.667 533.333c0-23.564-19.103-42.667-42.667-42.667s-42.667 19.103-42.667 42.667c0 23.564 19.103 42.667 42.667 42.667s42.667-19.103 42.667-42.667zM810.667 704c0-23.564-19.103-42.667-42.667-42.667s-42.667 19.103-42.667 42.667c0 23.564 19.103 42.667 42.667 42.667s42.667-19.103 42.667-42.667zM896 512c11.947 0 21.333 9.387 21.333 21.333s-9.387 21.333-21.333 21.333-21.333-9.387-21.333-21.333c0-11.947 9.387-21.333 21.333-21.333zM469.333 704c0-23.564-19.103-42.667-42.667-42.667s-42.667 19.103-42.667 42.667c0 23.564 19.103 42.667 42.667 42.667s42.667-19.103 42.667-42.667zM810.667 362.667c0-23.564-19.103-42.667-42.667-42.667s-42.667 19.103-42.667 42.667c0 23.564 19.103 42.667 42.667 42.667s42.667-19.103 42.667-42.667zM298.667 192c0-23.564-19.103-42.667-42.667-42.667s-42.667 19.103-42.667 42.667c0 23.564 19.103 42.667 42.667 42.667s42.667-19.103 42.667-42.667zM597.333 85.333c-11.947 0-21.333-9.387-21.333-21.333s9.387-21.333 21.333-21.333 21.333 9.387 21.333 21.333c0 11.947-9.387 21.333-21.333 21.333zM896 384c-11.947 0-21.333-9.387-21.333-21.333s9.387-21.333 21.333-21.333 21.333 9.387 21.333 21.333c0 11.947-9.387 21.333-21.333 21.333zM128 384c-11.947 0-21.333-9.387-21.333-21.333s9.387-21.333 21.333-21.333 21.333 9.387 21.333 21.333c0 11.947-9.387 21.333-21.333 21.333zM469.333 192c0-23.564-19.103-42.667-42.667-42.667s-42.667 19.103-42.667 42.667c0 23.564 19.103 42.667 42.667 42.667s42.667-19.103 42.667-42.667zM128 554.667c-11.947 0-21.333-9.387-21.333-21.333s9.387-21.333 21.333-21.333 21.333 9.387 21.333 21.333c0 11.947-9.387 21.333-21.333 21.333zM426.667 85.333c-11.947 0-21.333-9.387-21.333-21.333s9.387-21.333 21.333-21.333 21.333 9.387 21.333 21.333c0 11.947-9.387 21.333-21.333 21.333zM298.667 362.667c0-23.564-19.103-42.667-42.667-42.667s-42.667 19.103-42.667 42.667c0 23.564 19.103 42.667 42.667 42.667s42.667-19.103 42.667-42.667zM106.667 735.147l161.28-161.28-11.947 2.133c-23.467 0-42.667-19.2-42.667-42.667s19.2-42.667 42.667-42.667 42.667 19.2 42.667 42.667c0 4.267-1.28 8.107-2.56 11.947l119.893-119.893c-30.293-4.693-53.333-31.147-53.333-62.72 0-35.413 28.587-64 64-64 31.573 0 58.027 23.040 62.72 53.333l119.893-119.893c-3.84 1.28-7.68 2.56-11.947 2.56-23.467 0-42.667-19.2-42.667-42.667s19.2-42.667 42.667-42.667 42.667 19.2 42.667 42.667c0 4.267-1.28 8.107-2.56 11.947l161.28-161.28h0.427l60.16 60.16-692.48 692.48-60.16-60.16z" />
<glyph unicode="&#xe96a;" glyph-name="blur_on" d="M256 405.333c-23.467 0-42.667-19.2-42.667-42.667s19.2-42.667 42.667-42.667 42.667 19.2 42.667 42.667-19.2 42.667-42.667 42.667zM256 234.667c-23.467 0-42.667-19.2-42.667-42.667s19.2-42.667 42.667-42.667 42.667 19.2 42.667 42.667-19.2 42.667-42.667 42.667zM256 576c-23.467 0-42.667-19.2-42.667-42.667s19.2-42.667 42.667-42.667 42.667 19.2 42.667 42.667-19.2 42.667-42.667 42.667zM128 554.667c-11.947 0-21.333-9.387-21.333-21.333s9.387-21.333 21.333-21.333 21.333 9.387 21.333 21.333-9.387 21.333-21.333 21.333zM256 746.667c-23.467 0-42.667-19.2-42.667-42.667s19.2-42.667 42.667-42.667 42.667 19.2 42.667 42.667-19.2 42.667-42.667 42.667zM896 512c11.947 0 21.333 9.387 21.333 21.333s-9.387 21.333-21.333 21.333-21.333-9.387-21.333-21.333 9.387-21.333 21.333-21.333zM597.333 661.333c23.467 0 42.667 19.2 42.667 42.667s-19.2 42.667-42.667 42.667-42.667-19.2-42.667-42.667 19.2-42.667 42.667-42.667zM597.333 810.667c11.947 0 21.333 9.387 21.333 21.333s-9.387 21.333-21.333 21.333-21.333-9.387-21.333-21.333 9.387-21.333 21.333-21.333zM128 384c-11.947 0-21.333-9.387-21.333-21.333s9.387-21.333 21.333-21.333 21.333 9.387 21.333 21.333-9.387 21.333-21.333 21.333zM426.667 85.333c-11.947 0-21.333-9.387-21.333-21.333s9.387-21.333 21.333-21.333 21.333 9.387 21.333 21.333-9.387 21.333-21.333 21.333zM426.667 810.667c11.947 0 21.333 9.387 21.333 21.333s-9.387 21.333-21.333 21.333-21.333-9.387-21.333-21.333 9.387-21.333 21.333-21.333zM426.667 661.333c23.467 0 42.667 19.2 42.667 42.667s-19.2 42.667-42.667 42.667-42.667-19.2-42.667-42.667 19.2-42.667 42.667-42.667zM426.667 426.667c-35.413 0-64-28.587-64-64s28.587-64 64-64 64 28.587 64 64-28.587 64-64 64zM768 405.333c-23.467 0-42.667-19.2-42.667-42.667s19.2-42.667 42.667-42.667 42.667 19.2 42.667 42.667-19.2 42.667-42.667 42.667zM768 234.667c-23.467 0-42.667-19.2-42.667-42.667s19.2-42.667 42.667-42.667 42.667 19.2 42.667 42.667-19.2 42.667-42.667 42.667zM768 576c-23.467 0-42.667-19.2-42.667-42.667s19.2-42.667 42.667-42.667 42.667 19.2 42.667 42.667-19.2 42.667-42.667 42.667zM768 746.667c-23.467 0-42.667-19.2-42.667-42.667s19.2-42.667 42.667-42.667 42.667 19.2 42.667 42.667-19.2 42.667-42.667 42.667zM896 384c-11.947 0-21.333-9.387-21.333-21.333s9.387-21.333 21.333-21.333 21.333 9.387 21.333 21.333-9.387 21.333-21.333 21.333zM597.333 234.667c-23.467 0-42.667-19.2-42.667-42.667s19.2-42.667 42.667-42.667 42.667 19.2 42.667 42.667-19.2 42.667-42.667 42.667zM597.333 85.333c-11.947 0-21.333-9.387-21.333-21.333s9.387-21.333 21.333-21.333 21.333 9.387 21.333 21.333-9.387 21.333-21.333 21.333zM426.667 597.333c-35.413 0-64-28.587-64-64s28.587-64 64-64 64 28.587 64 64-28.587 64-64 64zM426.667 234.667c-23.467 0-42.667-19.2-42.667-42.667s19.2-42.667 42.667-42.667 42.667 19.2 42.667 42.667-19.2 42.667-42.667 42.667zM597.333 426.667c-35.413 0-64-28.587-64-64s28.587-64 64-64 64 28.587 64 64-28.587 64-64 64zM597.333 597.333c-35.413 0-64-28.587-64-64s28.587-64 64-64 64 28.587 64 64-28.587 64-64 64z" />
<glyph unicode="&#xe96b;" glyph-name="book" d="M768 874.667h-512c-46.933 0-85.333-38.4-85.333-85.333v-682.667c0-46.933 38.4-85.333 85.333-85.333h512c46.933 0 85.333 38.4 85.333 85.333v682.667c0 46.933-38.4 85.333-85.333 85.333zM384 789.333h85.333v-213.333l-42.667 32-42.667-32v213.333zM768 106.667h-512v682.667h42.667v-384l128 96 128-96v384h213.333v-682.667z" />
<glyph unicode="&#xe96c;" glyph-name="bookmark_border" d="M725.333 832h-426.667c-46.933 0-85.333-38.4-85.333-85.333v-682.667l298.667 128 298.667-128v682.667c0 46.933-38.4 85.333-85.333 85.333zM725.333 192l-213.333 93.013-213.333-93.013v554.667h426.667v-554.667z" />
<glyph unicode="&#xe96d;" glyph-name="bookmark" d="M725.333 832h-426.667c-46.933 0-85.333-38.4-85.333-85.333v-682.667l298.667 128 298.667-128v682.667c0 46.933-38.4 85.333-85.333 85.333z" />
<glyph unicode="&#xe96e;" glyph-name="bookmarks" d="M640 661.333v-553.387l-213.333 91.733-213.333-91.733v553.387h426.667zM810.667 917.333h-427.093c-46.933 0-84.907-38.4-84.907-85.333h426.667c46.933 0 85.333-38.4 85.333-85.333v-554.667l85.333-42.667v682.667c0 46.933-38.4 85.333-85.333 85.333v0zM640 746.667h-426.667c-46.933 0-85.333-38.4-85.333-85.333v-682.667l298.667 128 298.667-128v682.667c0 46.933-38.4 85.333-85.333 85.333v0z" />
<glyph unicode="&#xe96f;" glyph-name="border_all" d="M128 832v-768h768v768h-768zM469.333 149.333h-256v256h256v-256zM469.333 490.667h-256v256h256v-256zM810.667 149.333h-256v256h256v-256zM810.667 490.667h-256v256h256v-256z" />
<glyph unicode="&#xe970;" glyph-name="border_bottom" d="M384 490.667h-85.333v-85.333h85.333v85.333zM554.667 320h-85.333v-85.333h85.333v85.333zM384 832h-85.333v-85.333h85.333v85.333zM554.667 490.667h-85.333v-85.333h85.333v85.333zM213.333 832h-85.333v-85.333h85.333v85.333zM554.667 661.333h-85.333v-85.333h85.333v85.333zM725.333 490.667h-85.333v-85.333h85.333v85.333zM554.667 832h-85.333v-85.333h85.333v85.333zM725.333 832h-85.333v-85.333h85.333v85.333zM810.667 405.333h85.333v85.333h-85.333v-85.333zM810.667 234.667h85.333v85.333h-85.333v-85.333zM213.333 661.333h-85.333v-85.333h85.333v85.333zM810.667 832v-85.333h85.333v85.333h-85.333zM810.667 576h85.333v85.333h-85.333v-85.333zM213.333 490.667h-85.333v-85.333h85.333v85.333zM128 64h768v85.333h-768v-85.333zM213.333 320h-85.333v-85.333h85.333v85.333z" />
<glyph unicode="&#xe971;" glyph-name="border_clear" d="M298.667 746.667h85.333v85.333h-85.333v-85.333zM298.667 405.333h85.333v85.333h-85.333v-85.333zM298.667 64h85.333v85.333h-85.333v-85.333zM469.333 234.667h85.333v85.333h-85.333v-85.333zM469.333 64h85.333v85.333h-85.333v-85.333zM128 64h85.333v85.333h-85.333v-85.333zM128 234.667h85.333v85.333h-85.333v-85.333zM128 405.333h85.333v85.333h-85.333v-85.333zM128 576h85.333v85.333h-85.333v-85.333zM128 746.667h85.333v85.333h-85.333v-85.333zM469.333 405.333h85.333v85.333h-85.333v-85.333zM810.667 234.667h85.333v85.333h-85.333v-85.333zM810.667 405.333h85.333v85.333h-85.333v-85.333zM810.667 64h85.333v85.333h-85.333v-85.333zM810.667 576h85.333v85.333h-85.333v-85.333zM469.333 576h85.333v85.333h-85.333v-85.333zM810.667 832v-85.333h85.333v85.333h-85.333zM469.333 746.667h85.333v85.333h-85.333v-85.333zM640 64h85.333v85.333h-85.333v-85.333zM640 405.333h85.333v85.333h-85.333v-85.333zM640 746.667h85.333v85.333h-85.333v-85.333z" />
<glyph unicode="&#xe972;" glyph-name="border_horizontal" d="M128 64h85.333v85.333h-85.333v-85.333zM213.333 661.333h-85.333v-85.333h85.333v85.333zM128 234.667h85.333v85.333h-85.333v-85.333zM298.667 64h85.333v85.333h-85.333v-85.333zM213.333 832h-85.333v-85.333h85.333v85.333zM384 832h-85.333v-85.333h85.333v85.333zM725.333 832h-85.333v-85.333h85.333v85.333zM554.667 661.333h-85.333v-85.333h85.333v85.333zM554.667 832h-85.333v-85.333h85.333v85.333zM810.667 234.667h85.333v85.333h-85.333v-85.333zM469.333 64h85.333v85.333h-85.333v-85.333zM128 405.333h768v85.333h-768v-85.333zM810.667 832v-85.333h85.333v85.333h-85.333zM810.667 576h85.333v85.333h-85.333v-85.333zM469.333 234.667h85.333v85.333h-85.333v-85.333zM640 64h85.333v85.333h-85.333v-85.333zM810.667 64h85.333v85.333h-85.333v-85.333z" />
<glyph unicode="&#xe973;" glyph-name="border_inner" d="M128 64h85.333v85.333h-85.333v-85.333zM298.667 64h85.333v85.333h-85.333v-85.333zM213.333 661.333h-85.333v-85.333h85.333v85.333zM128 234.667h85.333v85.333h-85.333v-85.333zM384 832h-85.333v-85.333h85.333v85.333zM213.333 832h-85.333v-85.333h85.333v85.333zM725.333 832h-85.333v-85.333h85.333v85.333zM810.667 576h85.333v85.333h-85.333v-85.333zM810.667 832v-85.333h85.333v85.333h-85.333zM640 64h85.333v85.333h-85.333v-85.333zM554.667 832h-85.333v-341.333h-341.333v-85.333h341.333v-341.333h85.333v341.333h341.333v85.333h-341.333v341.333zM810.667 64h85.333v85.333h-85.333v-85.333zM810.667 234.667h85.333v85.333h-85.333v-85.333z" />
<glyph unicode="&#xe974;" glyph-name="border_left" d="M469.333 64h85.333v85.333h-85.333v-85.333zM469.333 234.667h85.333v85.333h-85.333v-85.333zM469.333 746.667h85.333v85.333h-85.333v-85.333zM469.333 576h85.333v85.333h-85.333v-85.333zM469.333 405.333h85.333v85.333h-85.333v-85.333zM298.667 64h85.333v85.333h-85.333v-85.333zM298.667 746.667h85.333v85.333h-85.333v-85.333zM298.667 405.333h85.333v85.333h-85.333v-85.333zM128 64h85.333v768h-85.333v-768zM810.667 576h85.333v85.333h-85.333v-85.333zM640 64h85.333v85.333h-85.333v-85.333zM810.667 234.667h85.333v85.333h-85.333v-85.333zM810.667 832v-85.333h85.333v85.333h-85.333zM810.667 405.333h85.333v85.333h-85.333v-85.333zM810.667 64h85.333v85.333h-85.333v-85.333zM640 405.333h85.333v85.333h-85.333v-85.333zM640 746.667h85.333v85.333h-85.333v-85.333z" />
<glyph unicode="&#xe975;" glyph-name="border_outer" d="M554.667 661.333h-85.333v-85.333h85.333v85.333zM554.667 490.667h-85.333v-85.333h85.333v85.333zM725.333 490.667h-85.333v-85.333h85.333v85.333zM128 832v-768h768v768h-768zM810.667 149.333h-597.333v597.333h597.333v-597.333zM554.667 320h-85.333v-85.333h85.333v85.333zM384 490.667h-85.333v-85.333h85.333v85.333z" />
<glyph unicode="&#xe976;" glyph-name="border_right" d="M298.667 64h85.333v85.333h-85.333v-85.333zM128 746.667h85.333v85.333h-85.333v-85.333zM298.667 746.667h85.333v85.333h-85.333v-85.333zM298.667 405.333h85.333v85.333h-85.333v-85.333zM128 64h85.333v85.333h-85.333v-85.333zM469.333 64h85.333v85.333h-85.333v-85.333zM128 405.333h85.333v85.333h-85.333v-85.333zM128 234.667h85.333v85.333h-85.333v-85.333zM128 576h85.333v85.333h-85.333v-85.333zM469.333 234.667h85.333v85.333h-85.333v-85.333zM640 405.333h85.333v85.333h-85.333v-85.333zM810.667 832v-768h85.333v768h-85.333zM640 64h85.333v85.333h-85.333v-85.333zM640 746.667h85.333v85.333h-85.333v-85.333zM469.333 405.333h85.333v85.333h-85.333v-85.333zM469.333 746.667h85.333v85.333h-85.333v-85.333zM469.333 576h85.333v85.333h-85.333v-85.333z" />
<glyph unicode="&#xe977;" glyph-name="border_style" d="M640 64h85.333v85.333h-85.333v-85.333zM810.667 64h85.333v85.333h-85.333v-85.333zM298.667 64h85.333v85.333h-85.333v-85.333zM469.333 64h85.333v85.333h-85.333v-85.333zM810.667 234.667h85.333v85.333h-85.333v-85.333zM810.667 405.333h85.333v85.333h-85.333v-85.333zM128 832v-768h85.333v682.667h682.667v85.333h-768zM810.667 576h85.333v85.333h-85.333v-85.333z" />
<glyph unicode="&#xe978;" glyph-name="border_top" d="M298.667 64h85.333v85.333h-85.333v-85.333zM298.667 405.333h85.333v85.333h-85.333v-85.333zM469.333 405.333h85.333v85.333h-85.333v-85.333zM469.333 64h85.333v85.333h-85.333v-85.333zM128 234.667h85.333v85.333h-85.333v-85.333zM128 64h85.333v85.333h-85.333v-85.333zM128 405.333h85.333v85.333h-85.333v-85.333zM128 576h85.333v85.333h-85.333v-85.333zM469.333 234.667h85.333v85.333h-85.333v-85.333zM810.667 576h85.333v85.333h-85.333v-85.333zM810.667 405.333h85.333v85.333h-85.333v-85.333zM128 832v-85.333h768v85.333h-768zM810.667 234.667h85.333v85.333h-85.333v-85.333zM640 64h85.333v85.333h-85.333v-85.333zM469.333 576h85.333v85.333h-85.333v-85.333zM810.667 64h85.333v85.333h-85.333v-85.333zM640 405.333h85.333v85.333h-85.333v-85.333z" />
<glyph unicode="&#xe979;" glyph-name="border_vertical" d="M128 576h85.333v85.333h-85.333v-85.333zM128 746.667h85.333v85.333h-85.333v-85.333zM298.667 64h85.333v85.333h-85.333v-85.333zM298.667 405.333h85.333v85.333h-85.333v-85.333zM128 405.333h85.333v85.333h-85.333v-85.333zM128 64h85.333v85.333h-85.333v-85.333zM128 234.667h85.333v85.333h-85.333v-85.333zM298.667 746.667h85.333v85.333h-85.333v-85.333zM810.667 234.667h85.333v85.333h-85.333v-85.333zM469.333 64h85.333v768h-85.333v-768zM810.667 64h85.333v85.333h-85.333v-85.333zM810.667 405.333h85.333v85.333h-85.333v-85.333zM810.667 832v-85.333h85.333v85.333h-85.333zM810.667 576h85.333v85.333h-85.333v-85.333zM640 746.667h85.333v85.333h-85.333v-85.333zM640 64h85.333v85.333h-85.333v-85.333zM640 405.333h85.333v85.333h-85.333v-85.333z" />
<glyph unicode="&#xe97a;" glyph-name="branding_watermark" d="M896 832h-768c-46.933 0-85.333-38.4-85.333-85.333v-597.333c0-46.933 38.4-85.333 85.333-85.333h768c46.933 0 85.333 38.4 85.333 85.333v597.333c0 46.933-38.4 85.333-85.333 85.333zM896 149.333h-768v597.333h768v-597.333zM469.333 448h384v-256h-384v256z" />
<glyph unicode="&#xe97b;" glyph-name="brightness_1" d="M512 789.333c188.16 0 341.333-153.173 341.333-341.333s-153.173-341.333-341.333-341.333-341.333 153.173-341.333 341.333 153.173 341.333 341.333 341.333zM512 874.667c-235.52 0-426.667-191.147-426.667-426.667s191.147-426.667 426.667-426.667 426.667 191.147 426.667 426.667-191.147 426.667-426.667 426.667v0z" />
<glyph unicode="&#xe97c;" glyph-name="brightness_2" d="M426.667 789.333c188.16 0 341.333-153.173 341.333-341.333s-153.173-341.333-341.333-341.333c-14.507 0-29.013 0.853-43.093 2.987 81.493 92.16 128.427 212.48 128.427 338.347s-46.933 246.187-128.427 338.347c14.080 2.133 28.587 2.987 43.093 2.987zM426.667 874.667c-77.653 0-150.613-21.333-213.333-57.6 127.573-73.813 213.333-211.2 213.333-369.067s-85.76-295.253-213.333-369.067c62.72-36.267 135.68-57.6 213.333-57.6 235.52 0 426.667 191.147 426.667 426.667s-191.147 426.667-426.667 426.667v0z" />
<glyph unicode="&#xe97d;" glyph-name="brightness_3" d="M541.867 750.507c108.8-56.747 183.467-171.093 183.467-302.507s-74.667-245.76-183.467-302.507c62.293 85.333 98.133 190.293 98.133 302.507s-35.84 217.173-98.133 302.507zM384 874.667c-44.8 0-87.467-6.827-128-19.627 173.227-54.187 298.667-215.893 298.667-407.040s-125.44-352.853-298.667-407.040c40.533-12.8 83.2-19.627 128-19.627 235.52 0 426.667 191.147 426.667 426.667s-191.147 426.667-426.667 426.667v0z" />
<glyph unicode="&#xe97e;" glyph-name="brightness_4" d="M853.333 589.227v200.107h-200.107l-141.227 141.227-141.227-141.227h-200.107v-200.107l-141.227-141.227 141.227-141.227v-200.107h200.107l141.227-141.227 141.227 141.227h200.107v200.107l141.227 141.227-141.227 141.227zM768 342.187v-150.187h-150.187l-105.813-105.813-105.813 105.813h-150.187v150.187l-105.813 105.813 105.813 105.813v150.187h150.187l105.813 105.813 105.813-105.813h150.187v-150.187l105.813-105.813-105.813-105.813zM524.373 661.333c-31.573 0-61.867-7.253-88.747-19.627 73.387-33.707 124.587-107.947 124.587-193.707s-51.2-160-124.587-193.707c26.88-12.373 57.173-19.627 88.747-19.627 117.76 0 213.333 95.573 213.333 213.333s-95.573 213.333-213.333 213.333z" />
<glyph unicode="&#xe97f;" glyph-name="brightness_5" d="M853.333 589.227v200.107h-200.107l-141.227 141.227-141.227-141.227h-200.107v-200.107l-141.227-141.227 141.227-141.227v-200.107h200.107l141.227-141.227 141.227 141.227h200.107v200.107l141.227 141.227-141.227 141.227zM768 342.187v-150.187h-150.187l-105.813-105.813-105.813 105.813h-150.187v150.187l-105.813 105.813 105.813 105.813v150.187h150.187l105.813 105.813 105.813-105.813h150.187v-150.187l105.813-105.813-105.813-105.813zM512 682.667c-129.28 0-234.667-105.387-234.667-234.667s105.387-234.667 234.667-234.667 234.667 105.387 234.667 234.667c0 129.28-105.387 234.667-234.667 234.667zM512 298.667c-82.347 0-149.333 66.987-149.333 149.333s66.987 149.333 149.333 149.333 149.333-66.987 149.333-149.333c0-82.347-66.987-149.333-149.333-149.333z" />
<glyph unicode="&#xe980;" glyph-name="brightness_6" d="M853.333 589.227v200.107h-200.107l-141.227 141.227-141.227-141.227h-200.107v-200.107l-141.227-141.227 141.227-141.227v-200.107h200.107l141.227-141.227 141.227 141.227h200.107v200.107l141.227 141.227-141.227 141.227zM768 342.187v-150.187h-150.187l-105.813-105.813-105.813 105.813h-150.187v150.187l-105.813 105.813 105.813 105.813v150.187h150.187l105.813 105.813 105.813-105.813h150.187v-150.187l105.813-105.813-105.813-105.813zM512 682.667v-469.333c129.28 0 234.667 105.387 234.667 234.667s-105.387 234.667-234.667 234.667z" />
<glyph unicode="&#xe981;" glyph-name="brightness_7" d="M853.333 589.227v200.107h-200.107l-141.227 141.227-141.227-141.227h-200.107v-200.107l-141.227-141.227 141.227-141.227v-200.107h200.107l141.227-141.227 141.227 141.227h200.107v200.107l141.227 141.227-141.227 141.227zM768 342.187v-150.187h-150.187l-105.813-105.813-105.813 105.813h-150.187v150.187l-105.813 105.813 105.813 105.813v150.187h150.187l105.813 105.813 105.813-105.813h150.187v-150.187l105.813-105.813-105.813-105.813zM512 682.667c-129.28 0-234.667-105.387-234.667-234.667s105.387-234.667 234.667-234.667 234.667 105.387 234.667 234.667c0 129.28-105.387 234.667-234.667 234.667zM512 298.667c-82.347 0-149.333 66.987-149.333 149.333s66.987 149.333 149.333 149.333c82.347 0 149.333-66.987 149.333-149.333s-66.987-149.333-149.333-149.333zM597.333 448c0-47.128-38.205-85.333-85.333-85.333s-85.333 38.205-85.333 85.333c0 47.128 38.205 85.333 85.333 85.333s85.333-38.205 85.333-85.333z" />
<glyph unicode="&#xe982;" glyph-name="brightness_auto" d="M469.333 661.333l-136.533-384h81.067l29.867 85.333h136.533l29.867-85.333h81.067l-136.533 384h-85.333zM462.933 420.267l49.067 155.733 49.067-155.733h-98.133zM853.333 589.227v200.107h-200.107l-141.227 141.227-141.227-141.227h-200.107v-200.107l-141.227-141.227 141.227-141.227v-200.107h200.107l141.227-141.227 141.227 141.227h200.107v200.107l141.227 141.227-141.227 141.227zM768 342.187v-150.187h-150.187l-105.813-105.813-105.813 105.813h-150.187v150.187l-105.813 105.813 105.813 105.813v150.187h150.187l105.813 105.813 105.813-105.813h150.187v-150.187l105.813-105.813-105.813-105.813z" />
<glyph unicode="&#xe983;" glyph-name="brightness_high" d="M853.333 589.227v200.107h-200.107l-141.227 141.227-141.227-141.227h-200.107v-200.107l-141.227-141.227 141.227-141.227v-200.107h200.107l141.227-141.227 141.227 141.227h200.107v200.107l141.227 141.227-141.227 141.227zM768 342.187v-150.187h-150.187l-105.813-105.813-105.813 105.813h-150.187v150.187l-105.813 105.813 105.813 105.813v150.187h150.187l105.813 105.813 105.813-105.813h150.187v-150.187l105.813-105.813-105.813-105.813zM512 704c-141.227 0-256-114.773-256-256s114.773-256 256-256 256 114.773 256 256-114.773 256-256 256zM512 277.333c-94.293 0-170.667 76.373-170.667 170.667s76.373 170.667 170.667 170.667c94.293 0 170.667-76.373 170.667-170.667s-76.373-170.667-170.667-170.667zM618.667 448c0-58.91-47.756-106.667-106.667-106.667s-106.667 47.756-106.667 106.667c0 58.91 47.756 106.667 106.667 106.667s106.667-47.756 106.667-106.667z" />
<glyph unicode="&#xe984;" glyph-name="brightness_low" d="M853.333 589.227v200.107h-200.107l-141.227 141.227-141.227-141.227h-200.107v-200.107l-141.227-141.227 141.227-141.227v-200.107h200.107l141.227-141.227 141.227 141.227h200.107v200.107l141.227 141.227-141.227 141.227zM768 342.187v-150.187h-150.187l-105.813-105.813-105.813 105.813h-150.187v150.187l-105.813 105.813 105.813 105.813v150.187h150.187l105.813 105.813 105.813-105.813h150.187v-150.187l105.813-105.813-105.813-105.813zM512 704c-141.227 0-256-114.773-256-256s114.773-256 256-256 256 114.773 256 256-114.773 256-256 256zM512 277.333c-94.293 0-170.667 76.373-170.667 170.667s76.373 170.667 170.667 170.667 170.667-76.373 170.667-170.667-76.373-170.667-170.667-170.667z" />
<glyph unicode="&#xe985;" glyph-name="brightness_medium" d="M853.333 589.227v200.107h-200.107l-141.227 141.227-141.227-141.227h-200.107v-200.107l-141.227-141.227 141.227-141.227v-200.107h200.107l141.227-141.227 141.227 141.227h200.107v200.107l141.227 141.227-141.227 141.227zM768 342.187v-150.187h-150.187l-105.813-105.813-105.813 105.813h-150.187v150.187l-105.813 105.813 105.813 105.813v150.187h150.187l105.813 105.813 105.813-105.813h150.187v-150.187l105.813-105.813-105.813-105.813zM512 704v-512c141.227 0 256 114.773 256 256s-114.773 256-256 256z" />
<glyph unicode="&#xe986;" glyph-name="broken_image" d="M810.667 832h-597.333c-46.933 0-85.333-38.4-85.333-85.333v-597.333c0-46.933 38.4-85.333 85.333-85.333h597.333c46.933 0 85.333 38.4 85.333 85.333v597.333c0 46.933-38.4 85.333-85.333 85.333zM810.667 149.333h-597.333v195.413l42.24-42.24 170.667 170.667 170.667-170.667 170.667 170.24 43.093-43.093v-280.32zM810.667 550.827l-43.093 43.093-170.667-171.093-170.667 170.667-170.667-170.667-42.24 42.667v281.173h597.333v-195.84z" />
<glyph unicode="&#xe987;" glyph-name="brush" d="M298.667 277.333c23.467 0 42.667-19.2 42.667-42.667 0-46.933-38.4-85.333-85.333-85.333-7.253 0-14.080 0.853-21.333 2.133 13.227 23.467 21.333 51.627 21.333 83.2 0 23.467 19.2 42.667 42.667 42.667zM796.587 832c-11.093 0-21.76-4.267-30.293-12.373l-382.293-382.293 117.333-117.333 382.293 382.293c16.64 16.64 16.64 43.52 0 60.16l-57.173 57.173c-8.533 8.533-19.2 12.373-29.867 12.373v0zM298.667 362.667c-70.827 0-128-57.173-128-128 0-55.893-49.493-85.333-85.333-85.333 39.253-52.053 106.24-85.333 170.667-85.333 94.293 0 170.667 76.373 170.667 170.667 0 70.827-57.173 128-128 128v0z" />
<glyph unicode="&#xe988;" glyph-name="bubble_chart" d="M298.667 533.333c-94.293 0-170.667-76.373-170.667-170.667s76.373-170.667 170.667-170.667 170.667 76.373 170.667 170.667-76.373 170.667-170.667 170.667zM298.667 277.333c-46.933 0-85.333 38.4-85.333 85.333s38.4 85.333 85.333 85.333 85.333-38.4 85.333-85.333-38.4-85.333-85.333-85.333zM640.427 320c-70.4 0-128-57.6-128-128s57.6-128 128-128 128 57.6 128 128-57.6 128-128 128zM640.427 149.333c-23.467 0-42.667 19.2-42.667 42.667s19.2 42.667 42.667 42.667 42.667-19.2 42.667-42.667-19.2-42.667-42.667-42.667zM704 832c-129.28 0-234.667-105.387-234.667-234.667s105.387-234.667 234.667-234.667 234.667 105.387 234.667 234.667-105.387 234.667-234.667 234.667zM704 448c-82.347 0-149.333 66.987-149.333 149.333s66.987 149.333 149.333 149.333 149.333-66.987 149.333-149.333-66.987-149.333-149.333-149.333z" />
<glyph unicode="&#xe989;" glyph-name="bug_report" d="M853.333 618.667h-119.893c-19.2 33.28-45.653 61.867-77.653 83.627l69.547 69.547-60.16 60.16-92.587-92.587c-19.627 4.693-39.68 7.253-60.587 7.253s-40.96-2.56-60.16-7.253l-93.013 92.587-60.16-60.16 69.12-69.547c-31.573-21.76-58.027-50.347-77.227-83.627h-119.893v-85.333h89.173c-2.133-14.080-3.84-28.16-3.84-42.667v-42.667h-85.333v-85.333h85.333v-42.667c0-14.507 1.707-28.587 3.84-42.667h-89.173v-85.333h119.893c44.373-76.373 126.72-128 221.44-128s177.067 51.627 221.44 128h119.893v85.333h-89.173c2.133 14.080 3.84 28.16 3.84 42.667v42.667h85.333v85.333h-85.333v42.667c0 14.507-1.707 28.587-3.84 42.667h89.173v85.333zM682.667 448v-128c0-9.387-1.28-20.053-2.987-29.867l-4.267-27.733-15.787-27.733c-30.72-52.907-87.040-85.333-147.627-85.333s-116.907 32.853-147.627 85.333l-15.787 27.307-4.267 27.733c-1.707 9.813-2.987 20.48-2.987 30.293v170.667c0 9.813 1.28 20.48 2.987 29.867l4.267 27.733 15.787 27.733c12.8 22.187 30.72 41.387 51.627 55.893l24.32 16.64 31.573 7.68c13.227 3.413 26.88 5.12 40.107 5.12 13.653 0 26.88-1.707 40.533-5.12l29.013-6.827 26.027-17.92c21.333-14.507 38.827-33.28 51.627-55.893l16.213-27.733 4.267-27.733c1.707-9.387 2.987-20.053 2.987-29.44v-42.667zM426.667 362.667h170.667v-85.333h-170.667v85.333zM426.667 533.333h170.667v-85.333h-170.667v85.333z" />
<glyph unicode="&#xe98a;" glyph-name="build" d="M964.693 149.76l-387.413 387.413c39.68 99.84 19.2 217.6-61.44 298.667-98.133 98.133-250.88 107.093-359.68 27.733l163.84-164.267-60.587-60.16-163.413 163.413c-79.36-108.373-70.4-261.547 27.733-359.253 79.36-79.36 194.987-100.267 293.973-63.147l388.693-388.693c16.64-16.64 43.52-16.64 60.16 0l98.133 98.133c17.067 16.213 17.067 43.093 0 60.16zM836.693 81.493l-403.627 403.627c-26.027-19.2-55.040-30.72-85.333-34.987-58.027-8.533-119.040 8.96-163.413 53.333-40.533 40.107-59.307 93.867-56.32 146.773l131.84-131.84 180.907 180.907-131.84 131.84c52.907 2.987 106.24-15.787 146.773-55.893 46.080-46.080 63.573-109.653 52.907-168.96-5.12-30.293-17.92-58.453-37.547-83.627l403.2-403.2-37.547-37.973z" />
<glyph unicode="&#xe98b;" glyph-name="burst_mode" d="M42.667 746.667h85.333v-597.333h-85.333v597.333zM213.333 746.667h85.333v-597.333h-85.333v597.333zM938.667 746.667h-512c-23.467 0-42.667-19.2-42.667-42.667v-512c0-23.467 19.2-42.667 42.667-42.667h512c23.467 0 42.667 19.2 42.667 42.667v512c0 23.467-19.2 42.667-42.667 42.667zM896 234.667h-426.667v426.667h426.667v-426.667zM743.68 421.547l-85.333-109.653-61.013 73.387-85.333-107.52h341.333z" />
<glyph unicode="&#xe98c;" glyph-name="business_center" d="M853.333 661.333h-170.667v85.333l-85.333 85.333h-170.667l-85.333-85.333v-85.333h-170.667c-46.933 0-85.333-38.4-85.333-85.333v-213.333c0-32 17.067-58.88 42.667-73.813v-139.52c0-47.36 37.973-85.333 85.333-85.333h597.333c47.36 0 85.333 37.973 85.333 85.333v139.947c25.173 14.933 42.667 42.24 42.667 73.387v213.333c0 46.933-38.4 85.333-85.333 85.333zM426.667 746.667h170.667v-85.333h-170.667v85.333zM170.667 576h682.667v-213.333h-213.333v128h-256v-128h-213.333v213.333zM554.667 320h-85.333v85.333h85.333v-85.333zM810.667 149.333h-597.333v128h170.667v-42.667h256v42.667h170.667v-128z" />
<glyph unicode="&#xe98d;" glyph-name="business" d="M512 661.333v170.667h-426.667v-768h853.333v597.333h-426.667zM256 149.333h-85.333v85.333h85.333v-85.333zM256 320h-85.333v85.333h85.333v-85.333zM256 490.667h-85.333v85.333h85.333v-85.333zM256 661.333h-85.333v85.333h85.333v-85.333zM426.667 149.333h-85.333v85.333h85.333v-85.333zM426.667 320h-85.333v85.333h85.333v-85.333zM426.667 490.667h-85.333v85.333h85.333v-85.333zM426.667 661.333h-85.333v85.333h85.333v-85.333zM853.333 149.333h-341.333v85.333h85.333v85.333h-85.333v85.333h85.333v85.333h-85.333v85.333h341.333v-426.667zM768 490.667h-85.333v-85.333h85.333v85.333zM768 320h-85.333v-85.333h85.333v85.333z" />
<glyph unicode="&#xe98e;" glyph-name="cached" d="M810.667 618.667l-170.667-170.667h128c0-141.227-114.773-256-256-256-43.093 0-84.053 10.667-119.467 29.867l-62.293-62.293c52.48-33.28 114.773-52.907 181.76-52.907 188.587 0 341.333 152.747 341.333 341.333h128l-170.667 170.667zM256 448c0 141.227 114.773 256 256 256 43.093 0 84.053-10.667 119.467-29.867l62.293 62.293c-52.48 33.28-114.773 52.907-181.76 52.907-188.587 0-341.333-152.747-341.333-341.333h-128l170.667-170.667 170.667 170.667h-128z" />
<glyph unicode="&#xe98f;" glyph-name="cake" d="M512 704c47.36 0 85.333 38.4 85.333 85.333 0 16.213-4.267 31.147-12.373 43.947l-72.96 126.72-72.96-126.72c-8.107-12.8-12.373-27.733-12.373-43.947 0-46.933 38.4-85.333 85.333-85.333zM768 576h-213.333v85.333h-85.333v-85.333h-213.333c-70.827 0-128-57.173-128-128v-384c0-23.467 19.2-42.667 42.667-42.667h682.667c23.467 0 42.667 19.2 42.667 42.667v384c0 70.827-57.173 128-128 128zM810.667 106.667h-597.333v128c38.4 0.427 75.093 15.787 102.4 43.093l46.507 45.653 45.653-45.653c55.893-55.893 153.173-55.467 208.64 0l46.080 45.653 45.653-45.653c27.307-27.307 64-42.667 102.4-43.093v-128zM810.667 298.667c-21.76 0.427-42.24 8.533-57.6 24.32l-90.88 90.88-91.307-90.88c-31.573-31.573-86.613-31.573-118.187 0l-90.88 90.88-91.307-90.88c-14.933-15.36-35.413-23.893-57.173-24.32v149.333c0 23.467 19.2 42.667 42.667 42.667h512c23.467 0 42.667-19.2 42.667-42.667v-149.333z" />
<glyph unicode="&#xe990;" glyph-name="calendar_today" d="M853.333 832h-42.667v85.333h-85.333v-85.333h-426.667v85.333h-85.333v-85.333h-42.667c-46.933 0-85.333-38.4-85.333-85.333v-682.667c0-46.933 38.4-85.333 85.333-85.333h682.667c46.933 0 85.333 38.4 85.333 85.333v682.667c0 46.933-38.4 85.333-85.333 85.333zM853.333 64h-682.667v469.333h682.667v-469.333zM853.333 618.667h-682.667v128h682.667v-128z" />
<glyph unicode="&#xe991;" glyph-name="calendar_view_day" d="M128 234.667h768v-85.333h-768v85.333zM810.667 448v-42.667h-597.333v42.667h597.333zM896 533.333h-768v-213.333h768v213.333zM128 704h768v-85.333h-768v85.333z" />
<glyph unicode="&#xe992;" glyph-name="call_end" d="M793.173 511.147c44.8-21.76 87.040-49.067 126.293-81.493l-45.653-45.653c-24.747 20.053-51.627 37.973-80.213 54.187v72.96zM230.4 511.147v-72.533c-27.733-15.787-54.613-33.707-79.787-54.187l-45.653 45.653c38.827 32 81.067 58.88 125.44 81.067zM512 661.333c-193.707 0-369.493-75.947-499.627-199.253-7.68-7.68-12.373-18.347-12.373-30.293s4.693-22.613 12.373-29.867l105.813-105.813c7.68-7.68 18.347-12.373 30.293-12.373 11.52 0 22.187 4.267 29.867 11.947 33.707 31.147 71.68 58.027 113.493 78.933 14.080 6.827 23.893 21.76 23.893 38.4v132.267c61.867 20.053 128 30.72 196.267 30.72s134.4-10.667 195.84-31.147v-132.267c0-17.067 9.813-31.573 23.893-38.4 41.813-20.907 80.213-47.36 113.92-78.933 7.68-7.253 18.347-11.947 29.867-11.947 11.947 0 22.613 4.693 30.293 12.373l105.813 105.813c7.68 7.68 12.373 18.347 12.373 30.293s-4.693 22.613-12.373 30.293c-130.133 123.307-305.92 199.253-499.627 199.253v0z" />
<glyph unicode="&#xe993;" glyph-name="call_made" d="M384 746.667v-85.333h281.173l-494.507-494.507 60.16-60.16 494.507 494.507v-281.173h85.333v426.667h-426.667z" />
<glyph unicode="&#xe994;" glyph-name="call_merge" d="M725.333 89.173l60.16 60.16-145.493 145.493-60.16-60.16 145.493-145.493zM320 618.667h149.333v-238.507l-230.827-230.827 60.16-60.16 256 256v273.493h149.333l-192 192-192-192z" />
<glyph unicode="&#xe995;" glyph-name="call_missed_outgoing" d="M128 601.173l384-384 298.667 298.667v-195.84h85.333v341.333h-341.333v-85.333h195.84l-238.507-238.507-323.84 323.84-60.16-60.16z" />
<glyph unicode="&#xe996;" glyph-name="call_missed" d="M835.84 661.333l-323.84-323.84-238.507 238.507h195.84v85.333h-341.333v-341.333h85.333v195.84l298.667-298.667 384 384-60.16 60.16z" />
<glyph unicode="&#xe997;" glyph-name="call_received" d="M853.333 729.173l-60.16 60.16-494.507-494.507v281.173h-85.333v-426.667h426.667v85.333h-281.173l494.507 494.507z" />
<glyph unicode="&#xe998;" glyph-name="call_split" d="M597.333 789.333l97.707-97.707-122.88-122.88 60.587-60.587 122.88 122.88 97.707-97.707v256h-256zM426.667 789.333h-256v-256l97.707 97.707 200.96-200.533v-323.84h85.333v358.827l-225.707 226.133 97.707 97.707z" />
<glyph unicode="&#xe999;" glyph-name="call_to_action" d="M896 832h-768c-46.933 0-85.333-38.4-85.333-85.333v-597.333c0-46.933 38.4-85.333 85.333-85.333h768c46.933 0 85.333 38.4 85.333 85.333v597.333c0 46.933-38.4 85.333-85.333 85.333zM896 149.333h-768v597.333h768v-597.333zM213.333 320h597.333v-128h-597.333v128z" />
<glyph unicode="&#xe99a;" glyph-name="call" d="M279.040 746.667c2.56-37.973 8.96-75.093 19.2-110.507l-51.2-51.2c-17.493 51.2-28.587 105.387-32.427 161.707h64.427zM699.733 233.813c36.267-10.24 73.387-16.64 110.933-19.2v-63.573c-56.32 3.84-110.507 14.933-162.133 32l51.2 50.773zM320 832h-149.333c-23.467 0-42.667-19.2-42.667-42.667 0-400.64 324.693-725.333 725.333-725.333 23.467 0 42.667 19.2 42.667 42.667v148.907c0 23.467-19.2 42.667-42.667 42.667-52.907 0-104.533 8.533-152.32 24.32-4.267 1.707-8.96 2.133-13.227 2.133-11.093 0-21.76-4.267-30.293-12.373l-93.867-93.867c-120.747 61.867-219.733 160.427-281.173 281.173l93.867 93.867c11.947 11.947 15.36 28.587 10.667 43.52-15.787 47.787-24.32 98.987-24.32 152.32 0 23.467-19.2 42.667-42.667 42.667v0z" />
<glyph unicode="&#xe99b;" glyph-name="camera_alt" d="M853.333 789.333h-135.253l-78.080 85.333h-256l-78.080-85.333h-135.253c-46.933 0-85.333-38.4-85.333-85.333v-512c0-46.933 38.4-85.333 85.333-85.333h682.667c46.933 0 85.333 38.4 85.333 85.333v512c0 46.933-38.4 85.333-85.333 85.333zM853.333 192h-682.667v512h172.8l78.080 85.333h180.907l78.080-85.333h172.8v-512zM512 661.333c-117.76 0-213.333-95.573-213.333-213.333s95.573-213.333 213.333-213.333 213.333 95.573 213.333 213.333-95.573 213.333-213.333 213.333zM512 320c-70.4 0-128 57.6-128 128s57.6 128 128 128 128-57.6 128-128c0-70.4-57.6-128-128-128z" />
<glyph unicode="&#xe99c;" glyph-name="camera_enhance" d="M512 533.333l-40.107-87.893-87.893-40.107 87.893-40.107 40.107-87.893 40.107 87.893 87.893 40.107-87.893 40.107zM853.333 746.667h-135.253l-78.080 85.333h-256l-78.080-85.333h-135.253c-46.933 0-85.333-38.4-85.333-85.333v-512c0-46.933 38.4-85.333 85.333-85.333h682.667c46.933 0 85.333 38.4 85.333 85.333v512c0 46.933-38.4 85.333-85.333 85.333zM853.333 149.333h-682.667v512h172.8l25.173 27.733 52.907 57.6h180.907l52.907-57.6 25.173-27.733h172.8v-512zM512 618.667c-117.76 0-213.333-95.573-213.333-213.333s95.573-213.333 213.333-213.333 213.333 95.573 213.333 213.333-95.573 213.333-213.333 213.333zM512 277.333c-70.4 0-128 57.6-128 128s57.6 128 128 128 128-57.6 128-128c0-70.4-57.6-128-128-128z" />
<glyph unicode="&#xe99d;" glyph-name="camera_front" d="M213.333 106.667v-85.333h213.333v-85.333l128 128-128 128v-85.333zM597.333 106.667h213.333v-85.333h-213.333v85.333zM511.573 618.667c47.36 0 85.76 38.4 85.76 85.333s-38.4 85.333-85.76 85.333-84.907-38.4-84.907-85.333c0-46.933 37.973-85.333 84.907-85.333zM725.333 960h-426.667c-46.933 0-85.333-38.4-85.333-85.333v-597.333c0-46.933 38.4-85.333 85.333-85.333h426.667c46.933 0 85.333 38.4 85.333 85.333v597.333c0 46.933-38.4 85.333-85.333 85.333zM725.333 277.333h-426.667v85.333h426.667v-85.333zM725.333 426.667c0 71.253-142.080 106.667-213.333 106.667s-213.333-35.413-213.333-106.667v448h426.667v-448z" />
<glyph unicode="&#xe99e;" glyph-name="camera_rear" d="M213.333 106.667v-85.333h213.333v-85.333l128 128-128 128v-85.333zM597.333 106.667h213.333v-85.333h-213.333v85.333zM725.333 960h-426.667c-46.933 0-85.333-38.4-85.333-85.333v-597.333c0-46.933 38.4-85.333 85.333-85.333h426.667c46.933 0 85.333 38.4 85.333 85.333v597.333c0 46.933-38.4 85.333-85.333 85.333zM725.333 277.333h-426.667v597.333h426.667v-597.333zM512 661.333c46.933 0 85.333 38.4 84.907 85.333 0 46.933-38.4 85.333-85.333 85.333s-84.907-38.4-84.907-85.333c0-46.933 37.973-85.333 85.333-85.333z" />
<glyph unicode="&#xe99f;" glyph-name="camera_roll" d="M597.333 746.667c0 46.933-38.4 85.333-85.333 85.333h-42.667v42.667c0 23.467-19.2 42.667-42.667 42.667h-170.667c-23.467 0-42.667-19.2-42.667-42.667v-42.667h-42.667c-46.933 0-85.333-38.4-85.333-85.333v-640c0-46.933 38.4-85.333 85.333-85.333h341.333c46.933 0 85.333 38.4 85.333 85.333h341.333v640h-341.333zM853.333 192h-341.333v-85.333h-341.333v640h128v85.333h85.333v-85.333h128v-85.333h341.333v-469.333zM384 320h85.333v-85.333h-85.333v85.333zM384 618.667h85.333v-85.333h-85.333v85.333zM554.667 320h85.333v-85.333h-85.333v85.333zM554.667 618.667h85.333v-85.333h-85.333v85.333zM725.333 320h85.333v-85.333h-85.333v85.333zM725.333 618.667h85.333v-85.333h-85.333v85.333z" />
<glyph unicode="&#xe9a0;" glyph-name="camera" d="M608 863.573l-3.413 1.707-0.427-0.853c-29.867 6.4-60.587 10.24-92.16 10.24-235.52 0-426.667-191.147-426.667-426.667s191.147-426.667 426.667-426.667 426.667 191.147 426.667 426.667c0 202.667-141.227 372.053-330.667 415.573zM828.16 576h-340.907l115.627 200.533c102.4-28.16 185.6-103.253 225.28-200.533zM558.933 785.92l-169.813-295.253-116.053 200.533c61.44 60.587 145.92 98.133 238.933 98.133 15.787 0 31.573-1.28 46.933-3.413zM243.2 657.493l121.173-209.493 49.067-85.333h-231.68c-6.827 27.307-11.093 55.893-11.093 85.333 0 78.933 27.307 151.467 72.533 209.493zM195.84 320h340.48l-115.627-200.533c-102.4 28.587-185.173 103.253-224.853 200.533zM465.067 110.507l170.24 294.827 116.053-200.533c-61.867-60.587-146.347-98.133-239.36-98.133-16.213 0-31.573 1.707-46.933 3.84zM780.8 238.507l-170.667 294.827h231.68c7.253-27.307 11.52-55.893 11.52-85.333 0-78.933-27.307-151.467-72.533-209.493z" />
<glyph unicode="&#xe9a1;" glyph-name="cancel_presentation" d="M896 832h-768c-46.933 0-85.333-38.4-85.333-85.333v-597.333c0-46.933 38.4-85.333 85.333-85.333h768c46.933 0 85.333 38.4 85.333 85.333v597.333c0 46.933-38.4 85.333-85.333 85.333zM896 149.333h-768v597.333h768v-597.333zM401.493 279.467l110.507 110.507 110.507-110.507 60.16 60.16-110.507 110.507 110.507 110.507-60.16 60.16-110.507-110.507-110.507 110.507-60.16-60.16 110.507-110.507-110.507-110.507z" />
<glyph unicode="&#xe9a2;" glyph-name="cancel" d="M512 874.667c-235.947 0-426.667-190.72-426.667-426.667s190.72-426.667 426.667-426.667c235.947 0 426.667 190.72 426.667 426.667s-190.72 426.667-426.667 426.667zM512 106.667c-188.16 0-341.333 153.173-341.333 341.333s153.173 341.333 341.333 341.333 341.333-153.173 341.333-341.333-153.173-341.333-341.333-341.333zM665.173 661.333l-153.173-153.173-153.173 153.173-60.16-60.16 153.173-153.173-153.173-153.173 60.16-60.16 153.173 153.173 153.173-153.173 60.16 60.16-153.173 153.173 153.173 153.173z" />
<glyph unicode="&#xe9a3;" glyph-name="card_giftcard" d="M853.333 704h-93.013c4.693 13.227 7.68 27.733 7.68 42.667 0 70.827-57.173 128-128 128-44.8 0-83.627-23.040-106.667-57.6l-21.333-28.587-21.333 29.013c-23.040 34.133-61.867 57.173-106.667 57.173-70.827 0-128-57.173-128-128 0-14.933 2.987-29.44 7.68-42.667h-93.013c-47.36 0-84.907-37.973-84.907-85.333l-0.427-469.333c0-47.36 37.973-85.333 85.333-85.333h682.667c47.36 0 85.333 37.973 85.333 85.333v469.333c0 47.36-37.973 85.333-85.333 85.333zM640 789.333c23.467 0 42.667-19.2 42.667-42.667s-19.2-42.667-42.667-42.667-42.667 19.2-42.667 42.667 19.2 42.667 42.667 42.667zM384 789.333c23.467 0 42.667-19.2 42.667-42.667s-19.2-42.667-42.667-42.667-42.667 19.2-42.667 42.667 19.2 42.667 42.667 42.667zM853.333 149.333h-682.667v85.333h682.667v-85.333zM853.333 362.667h-682.667v256h216.747l-88.747-120.747 69.12-49.92 144.213 196.267 144.213-196.267 69.12 49.92-88.747 120.747h216.747v-256z" />
<glyph unicode="&#xe9a4;" glyph-name="card_membership" d="M853.333 874.667h-682.667c-47.36 0-85.333-37.973-85.333-85.333v-469.333c0-47.36 37.973-85.333 85.333-85.333h170.667v-213.333l170.667 85.333 170.667-85.333v213.333h170.667c47.36 0 85.333 37.973 85.333 85.333v469.333c0 47.36-37.973 85.333-85.333 85.333zM853.333 320h-682.667v85.333h682.667v-85.333zM853.333 533.333h-682.667v256h682.667v-256z" />
<glyph unicode="&#xe9a5;" glyph-name="card_travel" d="M853.333 704h-128v85.333c0 47.36-37.973 85.333-85.333 85.333h-256c-47.36 0-85.333-37.973-85.333-85.333v-85.333h-128c-47.36 0-85.333-37.973-85.333-85.333v-469.333c0-47.36 37.973-85.333 85.333-85.333h682.667c47.36 0 85.333 37.973 85.333 85.333v469.333c0 47.36-37.973 85.333-85.333 85.333zM384 789.333h256v-85.333h-256v85.333zM853.333 149.333h-682.667v85.333h682.667v-85.333zM853.333 362.667h-682.667v256h128v-85.333h85.333v85.333h256v-85.333h85.333v85.333h128v-256z" />
<glyph unicode="&#xe9a6;" glyph-name="casino" d="M810.667 832h-597.333c-46.933 0-85.333-38.4-85.333-85.333v-597.333c0-46.933 38.4-85.333 85.333-85.333h597.333c46.933 0 85.333 38.4 85.333 85.333v597.333c0 46.933-38.4 85.333-85.333 85.333zM810.667 149.333h-597.333v597.333h597.333v-597.333zM384 256c0-35.346-28.654-64-64-64s-64 28.654-64 64c0 35.346 28.654 64 64 64s64-28.654 64-64zM384 640c0-35.346-28.654-64-64-64s-64 28.654-64 64c0 35.346 28.654 64 64 64s64-28.654 64-64zM576 448c0-35.346-28.654-64-64-64s-64 28.654-64 64c0 35.346 28.654 64 64 64s64-28.654 64-64zM768 256c0-35.346-28.654-64-64-64s-64 28.654-64 64c0 35.346 28.654 64 64 64s64-28.654 64-64zM768 640c0-35.346-28.654-64-64-64s-64 28.654-64 64c0 35.346 28.654 64 64 64s64-28.654 64-64z" />
<glyph unicode="&#xe9a7;" glyph-name="cast_connected" d="M42.667 192v-128h128c0 70.827-57.173 128-128 128zM42.667 362.667v-85.333c117.76 0 213.333-95.573 213.333-213.333h85.333c0 165.12-133.547 298.667-298.667 298.667zM42.667 533.333v-85.333c212.053 0 384-171.947 384-384h85.333c0 259.413-210.347 469.333-469.333 469.333zM896 832h-768c-46.933 0-85.333-38.4-85.333-85.333v-128h85.333v128h768v-597.333h-298.667v-85.333h298.667c46.933 0 85.333 38.4 85.333 85.333v597.333c0 46.933-38.4 85.333-85.333 85.333zM213.333 661.333v-85.333h512v-256h-128v-85.333h213.333v426.667z" />
</font>
</defs>
</svg>
